***Уважаемые пользователи и гости !!! Сайт переехал на новый домен Torrents-club.info. Просьба изменить ваши закладки! ***
 
[ Сегодня идет свободное скачивание без начисления Download ]


Статистика раздачи
Нет
 
   
 
 
 
 
Хэллоуин: 20 лет спустя / Halloween H20: 20 Years Later (1998) BDRip 1080p - Производство: США, Dimension Films, Nightfall Productions
Жанр: Ужасы, Триллер, Драма
Режиссер: Стив Майнер
Актеры: Джейми Ли Кёртис, Джош Хартнетт, Адам Аркин, Мишель Уильямс, ЛЛ Кул Джей, Джоди Лин О’Кифи, Адам Хэнн-Берд, Джанет Ли, Джозеф Гордон-Левитт, Нэнси Стивенс, Брэндон Уильямс, Биу Биллингсли, Мэтт Уинстон, Ларисса Миллер, Эммали Томпсон, Дэвид Бланчард, Джон Кассини, Джоди Вуд, Лиза Гэй Хэмилтон, Крис Дюран, Том Кэйн
Описание:
Спустя 20 лет Лори Строуд опять вынуждена бороться со своим прошлым! Эти годы она жила под вымышленным именем вместе с сыном Джоном. Но Майкл Майерс внезапно вернулся в ее жизнь с местью. С местью не только к Лори. Ужас начался для всего города! Когда группа студентов отправляется на праздник Хэллоуин, они оказываются в кровавой реке. И снова Лори должна спасти всех от исчадья Ада.

Возраст: 16+ (зрителям, достигшим 16 лет)
Рейтинг MPAA: R (лицам до 17 лет обязательно присутствие взрослого)
Дата мировой премьеры: 27 июля 1998
Продолжительность: 01:25:59
Качество видео: BDRip [sample]
Перевод: Многоголосый закадровый (R5)
Субтитры: нет
Видео:
AVC/H.264, 1920х824, ~11,7 Mbps
Аудио : Русский AC3, 48 kHz, 6 ch, 16bit, 384 kbps (Многоголосый, закадровый, R5)

Mediainfo:

Общее
Уникальный идентификатор : 173368752913331080888509587655513145751 (0x826D9B75C393B46B9C17050A9CA90197)
Полное имя : D:\хэллоуин 20 лет спустя\Halloween.20.Years.Later.1998.BDRip.1080p.winchester00100010.mkv
Формат : Matroska
Версия формата : Version 4 / Version 2
Размер файла : 7,27 Гбайт
Продолжительность : 1 ч. 25 м.
Общий поток : 12,1 Мбит/сек
Дата кодирования : UTC 2017-02-02 19:38:28
Программа кодирования : mkvmerge v8.3.0 ('Over the Horizon') 64bit
Библиотека кодирования : libebml v1.3.1 + libmatroska v1.4.2
Видео
Идентификатор : 1
Формат : AVC
Формат/Информация : Advanced Video Codec
Профиль формата : High@L4.1
Параметр CABAC формата : Да
Параметр ReFrames формата : 5 кадров
Идентификатор кодека : V_MPEG4/ISO/AVC
Продолжительность : 1 ч. 25 м.
Битрейт : 11,7 Мбит/сек
Ширина : 1920 пикселей
Высота : 824 пикселя
Соотношение сторон : 2,35:1
Режим частоты кадров : Постоянный
Частота кадров : 23,976 (24000/1001) кадра/сек
Цветовое пространство : YUV
Субдискретизация насыщенности : 4:2:0
Битовая глубина : 8 бит
Тип развёртки : Прогрессивная
Бит/(Пиксели*Кадры) : 0.309
Размер потока : 7,04 Гбайт (97%)
Библиотека кодирования : x264 core 80 r1376 3feaec2
Настройки программы : cabac=1 / ref=5 / deblock=1:-1:-1 / analyse=0x3:0x113 / me=umh / subme=9 / psy=1 / psy_rd=1.0:0.0 / mixed_ref=1 / me_range=16 / chroma_me=1 / trellis=1 / 8x8dct=1 / cqm=0 / deadzone=21,11 / fast_pskip=0 / chroma_qp_offset=-2 / threads=12 / sliced_threads=0 / nr=0 / decimate=1 / mbaff=0 / constrained_intra=0 / bframes=3 / b_pyramid=0 / b_adapt=1 / b_bias=0 / direct=3 / wpredb=1 / wpredp=2 / keyint=250 / keyint_min=25 / scenecut=40 / rc_lookahead=40 / rc=2pass / mbtree=1 / bitrate=11723 / ratetol=1.0 / qcomp=0.60 / qpmin=10 / qpmax=51 / qpstep=4 / cplxblur=20.0 / qblur=0.5 / ip_ratio=1.40 / aq=1:1.10
Язык : English
Default : Нет
Forced : Нет
Аудио
Идентификатор : 2
Формат : AC-3
Формат/Информация : Audio Coding 3
Расширение режима : CM (complete main)
Параметр Endianness формата : Big
Идентификатор кодека : A_AC3
Продолжительность : 1 ч. 25 м.
Вид битрейта : Постоянный
Битрейт : 384 Кбит/сек
Каналы : 6 каналов
Расположение каналов : Front: L C R, Side: L R, LFE
Частота : 48,0 КГц
Частота кадров : 31,250 кадров/сек (1536 spf)
Битовая глубина : 16 бит
Метод сжатия : С потерями
Размер потока : 236 Мбайт (3%)
Заголовок : rus MVO AC 5.1
Язык : Russian
Default : Нет
Forced : Нет
Скриншоты:

[Цитировать]



Показать сообщения:    

Текущее время: 06-Май 13:24

Часовой пояс: UTC + 6


Вы не можете начинать темы
Вы не можете отвечать на сообщения
Вы не можете редактировать свои сообщения
Вы не можете удалять свои сообщения
Вы не можете голосовать в опросах
Вы не можете прикреплять файлы к сообщениям
Вы не можете скачивать файлы

!ВНИМАНИЕ!
Сайт не предоставляет электронные версии произведений, а занимается лишь коллекционированием и каталогизацией ссылок, присылаемых и публикуемых на форуме нашими читателями. Если вы являетесь правообладателем какого-либо представленного материала и не желаете, чтобы ссылка на него находилась в нашем каталоге, свяжитесь с нами, и мы незамедлительно удалим ее. Файлы для обмена на трекере предоставлены пользователями сайта, и администрация не несет ответственности за их содержание. Просьба не заливать файлы, защищенные авторскими правами, а также файлы нелегального содержания!