***Уважаемые пользователи и гости !!! Сайт переехал на новый домен Torrents-club.info. Просьба изменить ваши закладки! ***
 
[ Сегодня идет свободное скачивание без начисления Download ]


Статистика раздачи
Нет
 
   
 
 
 
 
Прибытие / Arrival (2016) HDRip Страна: США
Год выпуска: 2016
Жанр: Фантастика, триллер, драма, детектив
Перевод: Дублированый [iTunes]
Субтитры: Русские (отдельно)
Продолжительность: 01:56:22
Режиссер: Дени Вильнёв
В ролях: Эми Адамс, Джереми Реннер, Майкл Стулбарг, Форест Уитакер, Сангита Патель, Ци Ма, Эбигейл Пнёвски, Марк О’Брайэн, Рут Чианг, Джейдин Мэлоун
Сюжет фильма: Неожиданное появление неопознанных летающих объектов в разных точках планеты повергает мир в трепет. Намерения пришельцев не ясны — вооруженные силы всего мира приведены в полную боевую готовность, а лучшие умы человечества пытаются понять, как разговаривать с непрошенными гостями. Правительство обращается за помощью к лингвисту Луизе Бэнкс и физику Яну Доннели, чтобы предотвратить глобальную катастрофу и найти общий язык с пришельцами. Отныне судьба человечества находится в их руках.

Формат: AVI
Качество: HDRip
Видео: кодек: XviD, размер кадра: 688x288, битрейт: 762 Кбит/сек frame rate: 23.976 кадра/сек
Аудио:язык: Русский, кодек: MP3, число каналов: 2 канала, битрейт: 128 кб/с [DUB]

MInfo

General
Complete name                  : Arrival.2016.HDRip.745MB.MegaPeer\Arrival.2016.HDRip.745MB.MegaPeer.avi
Format                         : AVI
Format/Info                    : Audio Video Interleave
File size                      : 746 MiB
Duration                       : 1h 56mn
Overall bit rate               : 896 Kbps
Video
ID                             : 0
Format                         : MPEG-4 Visual
Format profile                 : Advanced Simple@L5
Format settings, BVOP          : 1
Format settings, QPel          : No
Format settings, GMC           : No warppoints
Format settings, Matrix        : Custom
Codec ID                       : XVID
Codec ID/Hint                  : XviD
Duration                       : 1h 56mn
Bit rate                       : 762 Kbps
Width                          : 688 pixels
Height                         : 288 pixels
Display aspect ratio           : 2.40:1
Frame rate                     : 23.976 (24000/1001) fps
Color space                    : YUV
Chroma subsampling             : 4:2:0
Bit depth                      : 8 bits
Scan type                      : Progressive
Compression mode               : Lossy
Bits/(Pixel*Frame)             : 0.160
Stream size                    : 634 MiB (85%)
Writing library                : XviD 73
Audio
ID                             : 1
Format                         : MPEG Audio
Format version                 : Version 1
Format profile                 : Layer 3
Mode                           : Joint stereo
Mode extension                 : MS Stereo
Codec ID                       : 55
Codec ID/Hint                  : MP3
Duration                       : 1h 56mn
Bit rate mode                  : Constant
Bit rate                       : 128 Kbps
Channel(s)                     : 2 channels
Sampling rate                  : 48.0 KHz
Compression mode               : Lossy
Stream size                    : 107 MiB (14%)
Alignment                      : Aligned on interleaves
Interleave, duration           : 167 ms (4.00 video frames)
Interleave, preload duration   : 216 ms
Title                          : iTunes
Writing library                : LAME3.99r
Encoding settings              : -m j -V 4 -q 2 -lowpass 17 -b 128

Скриншоты:




[Цитировать]



Показать сообщения:    

Текущее время: 09-Май 07:44

Часовой пояс: UTC + 6


Вы не можете начинать темы
Вы не можете отвечать на сообщения
Вы не можете редактировать свои сообщения
Вы не можете удалять свои сообщения
Вы не можете голосовать в опросах
Вы не можете прикреплять файлы к сообщениям
Вы не можете скачивать файлы

!ВНИМАНИЕ!
Сайт не предоставляет электронные версии произведений, а занимается лишь коллекционированием и каталогизацией ссылок, присылаемых и публикуемых на форуме нашими читателями. Если вы являетесь правообладателем какого-либо представленного материала и не желаете, чтобы ссылка на него находилась в нашем каталоге, свяжитесь с нами, и мы незамедлительно удалим ее. Файлы для обмена на трекере предоставлены пользователями сайта, и администрация не несет ответственности за их содержание. Просьба не заливать файлы, защищенные авторскими правами, а также файлы нелегального содержания!