***Уважаемые пользователи и гости !!! Сайт переехал на новый домен Torrents-club.info. Просьба изменить ваши закладки! ***
 
[ Сегодня идет свободное скачивание без начисления Download ]


Статистика раздачи
Нет
 
   
 
 
 
 
Великолепная семерка / The Magnificent Seven (2016) HEVC 2160p
«Justice has a number»
Страна: США
Год выпуска: 2016
Жанр: Боевик, приключения, вестерн
Озвучивание: Дублированное [Лицензия]
Субтитры: Русские
Продолжительность: 02:13:18-Режиссер: Антуан Фукуа-В ролях: Дензел Вашингтон, Крис Прэтт, Итэн Хоук, Винсент Д`Онофрио, Ли Бён-хон, Мануэль Рульфо, Мартин Сенсмейер, Хейли Беннетт, Питер Сарсгаард, Люк Граймс-Сюжет фильма: Семеро отважных искателей приключений встают на защиту жителей маленького городка, угнетаемого бандой грабителей.- -Контейнер: MKV
Качество: BDRip 2160p-Видео: кодек: HEVC, размер кадра: 3840х2160, битрейт: 59,1 Мбит/сек frame rate: 23,976 кадра/сек
Аудио:язык: Русский, кодек: AC-3, число каналов: 6 каналов, битрейт: 384 кб/с [DUB] -

MI

General
Unique ID                      : 198688120185947236121081078375141418497 (0x9579F0A58B756AEEBCE08FC9DA092601)
Complete name                  :Velikolepnaya.Semerka.2016.UltraHD.2160p[mgt].mkv
Format                         : Matroska
Format version                 : Version 4 / Version 2
File size                      : 56.5 GiB
Duration                       : 2h 13mn
Overall bit rate               : 60.7 Mbps
Movie name                     : The Magnificent Seven.2016.BDRip.1080p
Encoded date                   : UTC 2017-01-03 13:32:41 / UTC 2016-12-29T20:46:36Z
Writing application            : mkvmerge v9.6.0 ('Slave To Your Mind') 64bit
Writing library                : libebml v1.3.4 + libmatroska v1.4.5 / Lavf56.1.0
Video
ID                             : 1
Format                         : HEVC
Format/Info                    : High Efficiency Video Coding
Format profile                 : Main 10@L6.1@Main
Codec ID                       : V_MPEGH/ISO/HEVC
Duration                       : 2h 13mn
Bit rate                       : 59.1 Mbps
Width                          : 3 840 pixels
Height                         : 2 160 pixels
Display aspect ratio           : 16:9
Frame rate mode                : Constant
Frame rate                     : 23.976 (24000/1001) fps
Color space                    : YUV
Chroma subsampling             : 4:2:0
Bit depth                      : 10 bits
Bits/(Pixel*Frame)             : 0.297
Stream size                    : 55.0 GiB (97%)
Writing library                : x265 1.9+3-63308f7658c3:[Windows][GCC 5.2.0][64 bit] 10bit
Encoding settings              : wpp / ctu=64 / min-cu-size=8 / max-tu-size=32 / tu-intra-depth=1 / tu-inter-depth=1 / me=1 / subme=2 / merange=57 / no-rect / no-amp / max-merge=2 / temporal-mvp / no-early-skip / rdpenalty=0 / no-tskip / no-tskip-fast / strong-intra-smoothing / no-lossless / no-cu-lossless / no-constrained-intra / no-fast-intra / open-gop / no-temporal-layers / interlace=0 / keyint=240 / min-keyint=24 / scenecut=40 / rc-lookahead=20 / lookahead-slices=8 / bframes=4 / bframe-bias=0 / b-adapt=2 / ref=3 / limit-refs=3 / no-limit-modes / weightp / no-weightb / aq-mode=1 / qg-size=32 / aq-strength=1.00 / cbqpoffs=0 / crqpoffs=0 / rd=3 / psy-rd=2.00 / rdoq-level=0 / psy-rdoq=0.00 / signhide / deblock / sao / no-sao-non-deblock / b-pyramid / cutree / no-intra-refresh / rc=abr / bitrate=61000 / qcomp=0.60 / qpmin=0 / qpmax=51 / qpstep=4 / ipratio=1.40 / pbratio=1.30
Default                        : Yes
Forced                         : No
Color range                    : Limited
Color primaries                : BT.709
Transfer characteristics       : BT.709
Matrix coefficients            : BT.601
Statistics Tags Issue          : mkvmerge v9.6.0 ('Slave To Your Mind') 64bit 2017-01-03 13:32:41 / mkvmerge v9.6.0 ('Slave To Your Mind') 64bit 2017-01-03 13:32:41 / UTC 2016-12-29T20:46:36Z
FromStats_BitRate              : 60309564
FromStats_Duration             : 02:13:18.032000000
FromStats_FrameCount           : 191761
FromStats_StreamSize           : 60294728705
Audio
ID                             : 2
Format                         : AC-3
Format/Info                    : Audio Coding 3
Mode extension                 : CM (complete main)
Format settings, Endianness    : Big
Codec ID                       : A_AC3
Duration                       : 2h 13mn
Bit rate mode                  : Constant
Bit rate                       : 384 Kbps
Channel(s)                     : 6 channels
Channel positions              : Front: L C R, Side: L R, LFE
Sampling rate                  : 48.0 KHz
Frame rate                     : 31.250 fps (1536 spf)
Compression mode               : Lossy
Delay relative to video        : 28s 798ms
Stream size                    : 366 MiB (1%)
Title                          : DUB
Language                       : Russian
Default                        : Yes
Forced                         : Yes
Statistics Tags Issue          : mkvmerge v9.6.0 ('Slave To Your Mind') 64bit 2017-01-03 13:32:41 / mkvmerge v9.6.0 ('Slave To Your Mind') 64bit 2017-01-03 13:32:41 / UTC 2016-12-29T20:46:36Z
FromStats_BitRate              : 384000
FromStats_Duration             : 02:12:49.984000000
FromStats_FrameCount           : 249062
FromStats_StreamSize           : 382559232
Text
ID                             : 3
Format                         : UTF-8
Codec ID                       : S_TEXT/UTF8
Codec ID/Info                  : UTF-8 Plain Text
Title                          : Forced
Language                       : Russian
Default                        : Yes
Forced                         : Yes
Statistics Tags Issue          : mkvmerge v9.6.0 ('Slave To Your Mind') 64bit 2017-01-03 13:32:41 / mkvmerge v9.6.0 ('Slave To Your Mind') 64bit 2017-01-03 13:32:41 / UTC 2016-12-29T20:46:36Z
FromStats_BitRate              : 0
FromStats_Duration             : 02:06:24.911000000
FromStats_FrameCount           : 18
FromStats_StreamSize           : 535
Скриншоты:

[Цитировать]



Показать сообщения:    

Текущее время: 12-Май 02:50

Часовой пояс: UTC + 6


Вы не можете начинать темы
Вы не можете отвечать на сообщения
Вы не можете редактировать свои сообщения
Вы не можете удалять свои сообщения
Вы не можете голосовать в опросах
Вы не можете прикреплять файлы к сообщениям
Вы не можете скачивать файлы

!ВНИМАНИЕ!
Сайт не предоставляет электронные версии произведений, а занимается лишь коллекционированием и каталогизацией ссылок, присылаемых и публикуемых на форуме нашими читателями. Если вы являетесь правообладателем какого-либо представленного материала и не желаете, чтобы ссылка на него находилась в нашем каталоге, свяжитесь с нами, и мы незамедлительно удалим ее. Файлы для обмена на трекере предоставлены пользователями сайта, и администрация не несет ответственности за их содержание. Просьба не заливать файлы, защищенные авторскими правами, а также файлы нелегального содержания!