***Уважаемые пользователи и гости !!! Сайт переехал на новый домен Torrents-club.info. Просьба изменить ваши закладки! ***
 
[ Сегодня идет свободное скачивание без начисления Download ]


Статистика раздачи
Нет
 
   
 
 
 
Прибытие / Arrival (2016) HDRip Страна: США
Год выпуска: 2016
Жанр: Фантастика, триллер, драма, детектив
Перевод: Дублированый [iTunes]
Субтитры: Русские (Полные, Форс.- iTunes), Украинские (Полные, Форс.- iTunes), Английские (полные, форс.)
Продолжительность: 01:56:22
Режиссер: Дени Вильнёв
В ролях: Эми Адамс, Джереми Реннер, Майкл Стулбарг, Форест Уитакер, Сангита Патель, Ци Ма, Эбигейл Пнёвски, Марк О’Брайэн, Рут Чианг, Джейдин Мэлоун
Сюжет фильма: Неожиданное появление неопознанных летающих объектов в разных точках планеты повергает мир в трепет. Намерения пришельцев не ясны — вооруженные силы всего мира приведены в полную боевую готовность, а лучшие умы человечества пытаются понять, как разговаривать с непрошенными гостями. Правительство обращается за помощью к лингвисту Луизе Бэнкс и физику Яну Доннели, чтобы предотвратить глобальную катастрофу и найти общий язык с пришельцами. Отныне судьба человечества находится в их руках.

Контейнер: MKV
Качество: HDRip-AVC-Видео: кодек: AVC, размер кадра: 1280x538, битрейт: 2294 Кбит/сек frame rate: 23.976 кадра/сек
Аудио:язык: Русский, кодек: AC-3, число каналов: 6 каналов, битрейт: 384 кб/с [DUB]

MInfo

General
Unique ID                      : 224760523162957255932267165454403279588 (0xA9174D5C2A19F2BE84CB23D54C669AE4)
Complete name                  : Arrival.2016.HDRip-AVC.[mgt].mkv
Format                         : Matroska
Format version                 : Version 2
File size                      : 2.18 GiB
Duration                       : 1h 56mn
Overall bit rate               : 2 679 Kbps
Movie name                     : Прибытие_Arrival.2016.BDRip.ru.H.264.720p.NNMClub
Encoded date                   : UTC 2017-02-03 04:37:22
Writing application            : mkvmerge v7.7.0 ('Six Voices') 64bit built on Feb 28 2015 23:39:33
Writing library                : libebml v1.3.1 + libmatroska v1.4.2
Video
ID                             : 1
Format                         : AVC
Format/Info                    : Advanced Video Codec
Format profile                 : High@L4.1
Format settings, CABAC         : Yes
Format settings, ReFrames      : 7 frames
Codec ID                       : V_MPEG4/ISO/AVC
Duration                       : 1h 56mn
Bit rate                       : 2 294 Kbps
Width                          : 1 280 pixels
Height                         : 538 pixels
Display aspect ratio           : 2.40:1
Frame rate mode                : Constant
Frame rate                     : 23.976 (24000/1001) fps
Color space                    : YUV
Chroma subsampling             : 4:2:0
Bit depth                      : 8 bits
Scan type                      : Progressive
Bits/(Pixel*Frame)             : 0.139
Stream size                    : 1.82 GiB (84%)
Title                          : Прибытие_Arrival.2016.BDRip.ru.H.264.720p.NNMClub
Writing library                : x264 core 146 r2538 121396c
Encoding settings              : cabac=1 / ref=7 / deblock=1:-3:-3 / analyse=0x3:0x133 / me=umh / subme=10 / psy=1 / psy_rd=1.00:0.25 / mixed_ref=1 / me_range=24 / chroma_me=1 / trellis=2 / 8x8dct=1 / cqm=0 / deadzone=6,6 / fast_pskip=0 / chroma_qp_offset=-4 / threads=12 / lookahead_threads=2 / sliced_threads=0 / nr=0 / decimate=0 / interlaced=0 / bluray_compat=0 / constrained_intra=0 / bframes=9 / b_pyramid=2 / b_adapt=2 / b_bias=0 / direct=3 / weightb=0 / open_gop=0 / weightp=2 / keyint=250 / keyint_min=23 / scenecut=40 / intra_refresh=0 / rc_lookahead=40 / rc=2pass / mbtree=1 / bitrate=2294 / ratetol=1.0 / qcomp=0.80 / qpmin=0 / qpmax=69 / qpstep=4 / cplxblur=20.0 / qblur=0.5 / vbv_maxrate=50000 / vbv_bufsize=62500 / nal_hrd=none / filler=0 / ip_ratio=1.10 / aq=1:0.80
Language                       : English
Default                        : Yes
Forced                         : No
Audio
ID                             : 2
Format                         : AC-3
Format/Info                    : Audio Coding 3
Mode extension                 : CM (complete main)
Format settings, Endianness    : Big
Codec ID                       : A_AC3
Duration                       : 1h 56mn
Bit rate mode                  : Constant
Bit rate                       : 384 Kbps
Channel(s)                     : 6 channels
Channel positions              : Front: L C R, Side: L R, LFE
Sampling rate                  : 48.0 KHz
Frame rate                     : 31.250 fps (1536 spf)
Compression mode               : Lossy
Stream size                    : 320 MiB (14%)
Title                          : Дубляж (iTunes)
Language                       : Russian
Default                        : Yes
Forced                         : No
Text #1
ID                             : 3
Format                         : UTF-8
Codec ID                       : S_TEXT/UTF8
Codec ID/Info                  : UTF-8 Plain Text
Title                          : Форс.
Language                       : Russian
Default                        : Yes
Forced                         : No
Text #2
ID                             : 4
Format                         : UTF-8
Codec ID                       : S_TEXT/UTF8
Codec ID/Info                  : UTF-8 Plain Text
Title                          : Полные
Language                       : Russian
Default                        : No
Forced                         : No
Text #3
ID                             : 5
Format                         : UTF-8
Codec ID                       : S_TEXT/UTF8
Codec ID/Info                  : UTF-8 Plain Text
Title                          : Форс.
Language                       : Ukrainian
Default                        : No
Forced                         : No
Text #4
ID                             : 6
Format                         : UTF-8
Codec ID                       : S_TEXT/UTF8
Codec ID/Info                  : UTF-8 Plain Text
Title                          : Полные
Language                       : Ukrainian
Default                        : No
Forced                         : No
Text #5
ID                             : 7
Format                         : UTF-8
Codec ID                       : S_TEXT/UTF8
Codec ID/Info                  : UTF-8 Plain Text
Title                          : Форс.
Language                       : English
Default                        : No
Forced                         : No
Text #6
ID                             : 8
Format                         : UTF-8
Codec ID                       : S_TEXT/UTF8
Codec ID/Info                  : UTF-8 Plain Text
Title                          : Полные
Language                       : English
Default                        : No
Forced                         : No
Menu
00:00:00.000                   : en:00:00:00.000
00:09:49.923                   : en:00:09:49.923
00:17:33.552                   : en:00:17:33.552
00:23:28.282                   : en:00:23:28.282
00:33:54.157                   : en:00:33:54.157
00:41:01.709                   : en:00:41:01.709
00:52:26.101                   : en:00:52:26.101
00:57:34.576                   : en:00:57:34.576
01:03:06.449                   : en:01:03:06.449
01:09:29.207                   : en:01:09:29.207
01:16:09.398                   : en:01:16:09.398
01:25:21.825                   : en:01:25:21.825
01:35:37.065                   : en:01:35:37.065
01:45:26.695                   : en:01:45:26.695

Скриншоты:




[Цитировать]



Показать сообщения:    

Текущее время: 29-Сен 22:40

Часовой пояс: UTC + 6


Вы не можете начинать темы
Вы не можете отвечать на сообщения
Вы не можете редактировать свои сообщения
Вы не можете удалять свои сообщения
Вы не можете голосовать в опросах
Вы не можете прикреплять файлы к сообщениям
Вы не можете скачивать файлы

!ВНИМАНИЕ!
Сайт не предоставляет электронные версии произведений, а занимается лишь коллекционированием и каталогизацией ссылок, присылаемых и публикуемых на форуме нашими читателями. Если вы являетесь правообладателем какого-либо представленного материала и не желаете, чтобы ссылка на него находилась в нашем каталоге, свяжитесь с нами, и мы незамедлительно удалим ее. Файлы для обмена на трекере предоставлены пользователями сайта, и администрация не несет ответственности за их содержание. Просьба не заливать файлы, защищенные авторскими правами, а также файлы нелегального содержания!