***Уважаемые пользователи и гости !!! Сайт переехал на новый домен Torrents-club.info. Просьба изменить ваши закладки! ***
 
[ Сегодня идет свободное скачивание без начисления Download ]


Статистика раздачи
Нет
 
   
 
 
 
 
Авансцена / Center Stage (2000) BDRip 1080p Информация о фильме
Название: Авансцена
Оригинальное название: Center Stage
Год выпуска: 2000
Жанр: Драма, музыка
Выпущено: США, Columbia Pictures Corporation, Laurence Mark Productions
Режиссер: Николас Хитнер
В ролях: Аманда Шулл, Зои Салдана, Сьюзан Мэй Прэтт, Питер Галлахер, Донна Мёрфи, Дебра Монк, Итэн Стифел, Саша Радетски, Джули Кент, Илья Кулик, Илон Бэйли, Шаким Эванс, Элизабет Хаббард, Виктор Энтони
О фильме: Танец - вот смысл их жизни. Молодые и амбициозные, будущие звезды балета готовы на все ради успеха. Не щадя своих сил, они взлетают на Олимп славы. На сцене они боги, но в обычной жизни - простые смертные со своими достоинствами и недостатками. И вот здесь стирается грань между волшебным миром танца и суровой реальностью. Возможно ли стать звездой и остаться человеком?
Сэмпл
Продолжительность: 01:55:46
Перевод: Профессиональный многоголосый
Субтитры: Английские
Файл
Качество: BDRip (1080p)
Видео: MPEG-4 AVC, 8909 Кбит/с, 1920x800, 23.976 кадр/с
Аудио #1: Русский (AC3, 6 ch, 448 Кбит/с)
Аудио #2: Английский (AC3, 6 ch, 448 Кбит/с)

МедиаИнфо

Формат : Matroska
Версия формата : Version 2
Размер файла : 7,76 Гбайт
Продолжительность : 1 ч. 55 м.
Общий поток : 9594 Кбит/сек
Название фильма : ~V ad~
Дата кодирования : UTC 2017-02-03 05:07:26
Программа кодирования : mkvmerge v6.5.0 ('Isn't she lovely') built on Oct 20 2013 12:50:05
Библиотека кодирования : libebml v1.3.0 + libmatroska v1.4.1
Обложка : Yes
Attachments : cover.jpg
Видео
Идентификатор : 1
Формат : AVC
Формат/Информация : Advanced Video Codec
Профиль формата : High@L4.1
Параметр CABAC формата : Да
Параметр ReFrames формата : 5 кадров
Идентификатор кодека : V_MPEG4/ISO/AVC
Продолжительность : 1 ч. 55 м.
Битрейт : 8700 Кбит/сек
Ширина : 1920 пикселей
Высота : 800 пикселей
Соотношение сторон : 2,40:1
Режим частоты кадров : Постоянный
Частота кадров : 23,976 (24000/1001) кадра/сек
Цветовое пространство : YUV
Субдискретизация насыщенности : 4:2:0
Битовая глубина : 8 бит
Тип развёртки : Прогрессивная
Бит/(Пиксели*Кадры) : 0.236
Размер потока : 6,88 Гбайт (89%)
Заголовок : ~V~
Библиотека кодирования : x264 core 148 r2744 b97ae06
Настройки программы : cabac=1 / ref=5 / deblock=1:-3:-3 / analyse=0x3:0x133 / me=umh / subme=11 / psy=1 / psy_rd=1.00:0.00 / mixed_ref=1 / me_range=40 / chroma_me=1 / trellis=2 / 8x8dct=1 / cqm=0 / deadzone=21,11 / fast_pskip=0 / chroma_qp_offset=-2 / threads=12 / lookahead_threads=1 / sliced_threads=0 / nr=0 / decimate=0 / interlaced=0 / bluray_compat=0 / constrained_intra=0 / bframes=12 / b_pyramid=2 / b_adapt=2 / b_bias=0 / direct=3 / weightb=1 / open_gop=0 / weightp=2 / keyint=240 / keyint_min=23 / scenecut=40 / intra_refresh=0 / rc=2pass / mbtree=0 / bitrate=8700 / ratetol=1.0 / qcomp=0.60 / qpmin=0 / qpmax=69 / qpstep=4 / cplxblur=20.0 / qblur=0.5 / ip_ratio=1.20 / pb_ratio=1.30 / aq=3:0.90
Язык : English
Default : Да
Forced : Нет
Аудио #1
Идентификатор : 2
Формат : AC-3
Формат/Информация : Audio Coding 3
Расширение режима : CM (complete main)
Параметр Endianness формата : Big
Идентификатор кодека : A_AC3
Продолжительность : 1 ч. 55 м.
Вид битрейта : Постоянный
Битрейт : 448 Кбит/сек
Каналы : 6 каналов
Расположение каналов : Front: L C R, Side: L R, LFE
Частота : 48,0 КГц
Частота кадров : 31,250 кадров/сек (1536 spf)
Метод сжатия : С потерями
Размер потока : 371 Мбайт (5%)
Заголовок : MVO
Язык : Russian
Default : Да
Forced : Да
Аудио #2
Идентификатор : 3
Формат : AC-3
Формат/Информация : Audio Coding 3
Расширение режима : CM (complete main)
Параметр Endianness формата : Big
Идентификатор кодека : A_AC3
Продолжительность : 1 ч. 55 м.
Вид битрейта : Постоянный
Битрейт : 448 Кбит/сек
Каналы : 6 каналов
Расположение каналов : Front: L C R, Side: L R, LFE
Частота : 48,0 КГц
Частота кадров : 31,250 кадров/сек (1536 spf)
Метод сжатия : С потерями
Размер потока : 371 Мбайт (5%)
Язык : English
Default : Нет
Forced : Нет
Текст
Идентификатор : 4
Формат : UTF-8
Идентификатор кодека : S_TEXT/UTF8
Идентификатор кодека/Информация : UTF-8 Plain Text
Язык : English
Default : Нет
Forced : Нет
Меню
00:00:00.000 : en:Start
00:04:34.538 : en:New Students
00:07:35.752 : en:Jonathan Reeves
00:09:57.260 : en:Day One
00:15:29.692 : en:"Swan Lake"
00:16:23.347 : en:"Romeo and Juliet"
00:19:16.287 : en:Gala Reception
00:24:28.299 : en:Classes Continue
00:29:24.029 : en:Not Improving
00:33:32.978 : en:"Eres Tu"
00:35:30.997 : en:Bowling Date
00:37:23.077 : en:"Come, Baby, Come"
00:43:52.834 : en:"Candy"
00:46:45.941 : en:"Higher Ground"
00:50:25.293 : en:"I Wanna Be with You"
00:53:27.575 : en:Final Workshop Casting
00:58:02.517 : en:Rehearsals Begin
01:01:40.703 : en:"Friends Forever"
01:06:02.167 : en:"Stars and Stripes"
01:12:29.855 : en:From the Top
01:17:25.484 : en:Act Naturally
01:26:11.978 : en:"Piano Concerto No. 2" I
01:28:03.390 : en:Unhappy & Sick
01:30:07.611 : en:"Piano Concerto No. 2" Ii
01:33:52.969 : en:"the Way You Make Me Feel"
01:38:07.390 : en:"If I Was the One"
01:40:46.350 : en:"Canned Heat"
01:47:26.551 : en:The Strength to Say No

х264

x264 [info]: frame I:965 Avg QP:19.12 size:127144
x264 [info]: frame P:33007 Avg QP:20.90 size: 78291
x264 [info]: frame B:132564 Avg QP:22.85 size: 36535
x264 [info]: consecutive B-frames: 0.8% 1.2% 4.0% 27.7% 15.8% 28.1% 7.7% 12.0% 1.6% 0.4% 0.3% 0.5% 0.0%

Скриншоты



[Цитировать]



Показать сообщения:    

Текущее время: 12-Май 02:16

Часовой пояс: UTC + 6


Вы не можете начинать темы
Вы не можете отвечать на сообщения
Вы не можете редактировать свои сообщения
Вы не можете удалять свои сообщения
Вы не можете голосовать в опросах
Вы не можете прикреплять файлы к сообщениям
Вы не можете скачивать файлы

!ВНИМАНИЕ!
Сайт не предоставляет электронные версии произведений, а занимается лишь коллекционированием и каталогизацией ссылок, присылаемых и публикуемых на форуме нашими читателями. Если вы являетесь правообладателем какого-либо представленного материала и не желаете, чтобы ссылка на него находилась в нашем каталоге, свяжитесь с нами, и мы незамедлительно удалим ее. Файлы для обмена на трекере предоставлены пользователями сайта, и администрация не несет ответственности за их содержание. Просьба не заливать файлы, защищенные авторскими правами, а также файлы нелегального содержания!