***Уважаемые пользователи и гости !!! Сайт переехал на новый домен Torrents-club.info. Просьба изменить ваши закладки! ***
 
[ Сегодня идет свободное скачивание без начисления Download ]


Статистика раздачи
Нет
 
   
 
 
 
 
Пиковая дама: Черный обряд (2015) BDRip
«Пиковая дама, приди»
Страна: Россия
Год выпуска: 2015
Жанр: Ужасы
Озвучивание: Не треуется (русский) [Лицензия]
Субтитры: Нет
Продолжительность: 01:32:56-Режиссер: Святослав Подгаевский-В ролях: Алина Бабак, Игорь Хрипунов, Владимир Селезнев, Валерия Дмитриева, Сергей Походаев, Евгения Лоза, Валентин Садики, Мария Фомина, Максим Стоянов, Наталья Домерецкая-Сюжет фильма: С древних времен считается, что любое зеркало может стать порталом в мир мертвых. Одним из старейших мистических ритуалов с зеркалом является обряд вызова Пиковой Дамы. Четверо подростков в шутку решают призвать ее, но даже не подозревают, на какие ужасы они обрекли себя и своих близких. Теперь мстительный призрак не остановится, пока не получит их души.- -Формат: AVI
Качество: BDRip-Видео: кодек: XviD, размер кадра: 720x400, битрейт: 1 690 Кбит/сек frame rate: 24.000 кадра/сек
Аудио:язык: Русский, кодек: AC-3, число каналов: 6 каналов, битрейт: 448 кб/с -

MInfo

General
Complete name                  : P1kovaya.dama.Black.Obryad.2015.BDRip[mgt].avi
Format                         : AVI
Format/Info                    : Audio Video Interleave
File size                      : 1.35 GiB
Duration                       : 1h 32mn
Overall bit rate               : 2 083 Kbps
Writing application            : VirtualDubMod 1.5.10.2 (build 2540/release)
Writing library                : VirtualDubMod build 2540/release
Video
ID                             : 0
Format                         : MPEG-4 Visual
Format profile                 : Advanced Simple@L5
Format settings, BVOP          : 2
Format settings, QPel          : No
Format settings, GMC           : No warppoints
Format settings, Matrix        : Default (MPEG)
Codec ID                       : XVID
Codec ID/Hint                  : XviD
Duration                       : 1h 32mn
Bit rate                       : 1 690 Kbps
Width                          : 720 pixels
Height                         : 304 pixels
Display aspect ratio           : 2.35:1
Frame rate                     : 24.000 fps
Color space                    : YUV
Chroma subsampling             : 4:2:0
Bit depth                      : 8 bits
Scan type                      : Progressive
Compression mode               : Lossy
Bits/(Pixel*Frame)             : 0.322
Stream size                    : 1.10 GiB (81%)
Writing library                : XviD 1.2.1 (UTC 2008-12-04)
Audio
ID                             : 1
Format                         : AC-3
Format/Info                    : Audio Coding 3
Mode extension                 : CM (complete main)
Format settings, Endianness    : Big
Codec ID                       : 2000
Duration                       : 1h 32mn
Bit rate mode                  : Constant
Bit rate                       : 384 Kbps
Channel(s)                     : 6 channels
Channel positions              : Front: L C R, Side: L R, LFE
Sampling rate                  : 48.0 KHz
Frame rate                     : 31.250 fps (1536 spf)
Compression mode               : Lossy
Stream size                    : 255 MiB (18%)
Alignment                      : Split accross interleaves
Interleave, duration           : 42 ms (1.00 video frame)
Interleave, preload duration   : 500 ms

Скриншоты




[Цитировать]



Показать сообщения:    

Текущее время: 07-Май 13:43

Часовой пояс: UTC + 6


Вы не можете начинать темы
Вы не можете отвечать на сообщения
Вы не можете редактировать свои сообщения
Вы не можете удалять свои сообщения
Вы не можете голосовать в опросах
Вы не можете прикреплять файлы к сообщениям
Вы не можете скачивать файлы

!ВНИМАНИЕ!
Сайт не предоставляет электронные версии произведений, а занимается лишь коллекционированием и каталогизацией ссылок, присылаемых и публикуемых на форуме нашими читателями. Если вы являетесь правообладателем какого-либо представленного материала и не желаете, чтобы ссылка на него находилась в нашем каталоге, свяжитесь с нами, и мы незамедлительно удалим ее. Файлы для обмена на трекере предоставлены пользователями сайта, и администрация не несет ответственности за их содержание. Просьба не заливать файлы, защищенные авторскими правами, а также файлы нелегального содержания!