***Уважаемые пользователи и гости !!! Сайт переехал на новый домен Torrents-club.info. Просьба изменить ваши закладки! ***
 
[ Сегодня идет свободное скачивание без начисления Download ]


Статистика раздачи
Нет
 
   
 
 
 
 
Меркурий в опасности / Mercury Rising (1998) HDRip
«Кто-то знает очень много»
Страна: США
Год выпуска: 1998
Жанр: Боевик, триллер, драма, криминал
Перевод: Дублированный, Профессиональный (многоголосый, закадровый)
Субтитры: Нет
Продолжительность: 01:51:27-Режиссер: Харольд Беккер-В ролях: Брюс Уиллис, Алек Болдуин, Майко Хьюз, Чи МакБрайд, Ким Диккенс, Роберт Стэнтон, Бодхи Пайн Элфмэн, Л. Л. Гинтер, Кэрри Престон, Джон Кэрролл Линч, Питер Стормаре-Сюжет фильма: Бывший сотрудник ФБР Арт Джеффрис защищает от безжалостных федеральных агентов Саймона, девятилетнего мальчика, сумевшего вскрыть новый, «не поддающийся дешифровке» правительственный код. Саймон может читать «Меркурий», новейший шифровальный код, так же легко, как другие дети читают книги.
Эти способности ставят под угрозу сам смысл существования новейшей разработки стоимостью миллиард долларов, особенно если враги Соединенных Штатов узнают о необыкновенном мальчике и захватят его. Глава Программы Ник Кудроу приказывает устранить «угрозу безопасности страны», но он не учитывает, что в дело вмешивается Джеффрис. Преследуемые кровавыми убийцами, Саймон и Джеффрис понимают, что никому доверять нельзя.
Время работает не на них, и детектив решает, что единственная надежда на спасение — использовать удивительные способности Саймона и призвать убийц к ответу.- -Формат: AVI
Качество: HDRip-Видео: кодек: XviD, размер кадра: 720x304, битрейт: 1 519 Кбит/сек frame rate: 23.976 кадра/сек
Аудио#1:язык: Русский, кодек: AC-3, число каналов: 2 канала, битрейт: 192 кб/с [DUB]
Аудио#2:язык: Русский, кодек: MP3, число каналов: 2 канала, битрейт: 128 кб/с [P MVO] -

MI

General
Complete name                  : Mercury.V.Opasnisti.HDRip.1.45Gb[mgt].avi
Format                         : AVI
Format/Info                    : Audio Video Interleave
File size                      : 1.44 GiB
Duration                       : 1h 51mn
Overall bit rate               : 1 853 Kbps
Writing application            : VirtualDubMod 1.5.10.2 (build 2540/release)
Writing library                : VirtualDubMod build 2540/release
Video
ID                             : 0
Format                         : MPEG-4 Visual
Format profile                 : Advanced Simple@L5
Format settings, BVOP          : 1
Format settings, QPel          : No
Format settings, GMC           : No warppoints
Format settings, Matrix        : Custom
Codec ID                       : XVID
Codec ID/Hint                  : XviD
Duration                       : 1h 51mn
Bit rate                       : 1 519 Kbps
Width                          : 720 pixels
Height                         : 304 pixels
Display aspect ratio           : 2.35:1
Frame rate                     : 23.976 (23976/1000) fps
Color space                    : YUV
Chroma subsampling             : 4:2:0
Bit depth                      : 8 bits
Scan type                      : Progressive
Compression mode               : Lossy
Bits/(Pixel*Frame)             : 0.289
Stream size                    : 1.18 GiB (82%)
Writing library                : XviD 1.2.1 (UTC 2008-12-04)
Audio #1
ID                             : 1
Format                         : AC-3
Format/Info                    : Audio Coding 3
Mode extension                 : CM (complete main)
Format settings, Endianness    : Big
Codec ID                       : 2000
Duration                       : 1h 51mn
Bit rate mode                  : Constant
Bit rate                       : 192 Kbps
Channel(s)                     : 2 channels
Channel positions              : Front: L R
Sampling rate                  : 48.0 KHz
Frame rate                     : 31.250 fps (1536 spf)
Compression mode               : Lossy
Stream size                    : 153 MiB (10%)
Alignment                      : Split accross interleaves
Interleave, duration           : 42 ms (1.00 video frame)
Interleave, preload duration   : 500 ms
Audio #2
ID                             : 2
Format                         : MPEG Audio
Format version                 : Version 1
Format profile                 : Layer 3
Mode                           : Joint stereo
Codec ID                       : 55
Codec ID/Hint                  : MP3
Duration                       : 1h 51mn
Bit rate mode                  : Constant
Bit rate                       : 128 Kbps
Channel(s)                     : 2 channels
Sampling rate                  : 48.0 KHz
Compression mode               : Lossy
Stream size                    : 102 MiB (7%)
Alignment                      : Aligned on interleaves
Interleave, duration           : 42 ms (1.00 video frame)
Interleave, preload duration   : 504 ms
Writing library                : LAME3.98r
Encoding settings              : -m j -V 4 -q 2 -lowpass 17 -b 128

Скриншоты




[Цитировать]



Показать сообщения:    

Текущее время: 16-Май 07:45

Часовой пояс: UTC + 6


Вы не можете начинать темы
Вы не можете отвечать на сообщения
Вы не можете редактировать свои сообщения
Вы не можете удалять свои сообщения
Вы не можете голосовать в опросах
Вы не можете прикреплять файлы к сообщениям
Вы не можете скачивать файлы

!ВНИМАНИЕ!
Сайт не предоставляет электронные версии произведений, а занимается лишь коллекционированием и каталогизацией ссылок, присылаемых и публикуемых на форуме нашими читателями. Если вы являетесь правообладателем какого-либо представленного материала и не желаете, чтобы ссылка на него находилась в нашем каталоге, свяжитесь с нами, и мы незамедлительно удалим ее. Файлы для обмена на трекере предоставлены пользователями сайта, и администрация не несет ответственности за их содержание. Просьба не заливать файлы, защищенные авторскими правами, а также файлы нелегального содержания!