***Уважаемые пользователи и гости !!! Сайт переехал на новый домен Torrents-club.info. Просьба изменить ваши закладки! ***
 
[ Сегодня идет свободное скачивание без начисления Download ]


Статистика раздачи
Нет
 
   
 
 
 
 

Твин Пикс / Twin Peaks
«A town where everyone knows everyone and nothing is what it seems»
Жанр: Драма, Криминал, Мистика, Триллер
Страна: США, ABC
Год выпуска: 1990
Режиссер: Дэвид Линч, Лесли Линка Глаттер, Калеб Дешанель, Марк Фрост
В ролях: Кайл МакЛоклен (Дейл Купер), Майкл Онткин (Гарри С. Труман), Шерил Ли (Мэдди Фергюсон), Лара Флинн Бойл (Донна Хэйвард), Шерилин Фенн (Одри Хорн), Рэй Уайз (Лиланд Палмер), Мигель Феррер (Альберт Розенфилд), Дэвид Линч (Гордон Коул).

Сюжет фильма: В провинциальном городке Твин Пикс, который находится вдали от основных транспортных магистралей и крупных мегаполисов, совершено зверское убийство. Погибшую звали Лора Палмер, и расследовать обстоятельства ее насильственной смерти взялся агент ФБР Дейл Купер. Он молод, любит кофе и немного самонадеян. В своем расследовании он опирается как на дедукцию, так и на неявные экстрасенсорные способности. Но сюрреалистический мир городка начинает проникать в мысли и душу логика-идеалиста Купера. А за гротескным образом каждого жителя обнаруживается большая тайна. Грязные секреты разъедают жителей Твин Пикса изнутри, но все они тщательно оберегают их от любого посягательства. Дейл Купер расследует убийство Лоры Палмер, но еще не знает, с какими реальными и мистическими ситуациями ему придется столкнуться. Не знает он и того, как на нем скажется это дело и погружение в мир ясновидящих поленьев, говорящих задом наперед карликов и комнат с кроваво-красными стенами...
Личная оценка: 10
Продолжительность: 1 ~ 01:34:00; 7x ~ 00:47:00
Качество видео: BDRip
Формат: AVI
Перевод: Профессиональный (многоголосый, закадровый) (LostFilm)
Реклама: Нет
Субтитры: Нет
Видео: кодек: XviD, размер кадра: 720 x 400, 23.976 битрейт: ~1 700 кб/с
Аудио: язык: Русский, перевод: P MVO(AlexFilm), кодек: AC3, 2 ch, битрейт: 192 кб/с


MI

General
Complete name                            : D:\Видео-раздачи\Twin Peaks 1 - LostFilm.TV\Twin.Peaks.S01E01.rus.LostFilm.TV.avi
Format                                   : AVI
Format/Info                              : Audio Video Interleave
File size                                : 1.09 GiB
Duration                                 : 1h 34mn
Overall bit rate mode                    : Variable
Overall bit rate                         : 1 658 Kbps
Writing application                      : Nandub v1.0rc2
Writing library                          : Nandub build 1853/release
Video
ID                                       : 0
Format                                   : MPEG-4 Visual
Format profile                           : Advanced Simple@L5
Format settings, BVOP                    : No
Format settings, QPel                    : No
Format settings, GMC                     : No warppoints
Format settings, Matrix                  : Default (H.263)
Codec ID                                 : XVID
Codec ID/Hint                            : XviD
Duration                                 : 1h 34mn
Bit rate                                 : 1 460 Kbps
Width                                    : 720 pixels
Height                                   : 400 pixels
Display aspect ratio                     : 16:9
Frame rate                               : 23.976 fps
Color space                              : YUV
Chroma subsampling                       : 4:2:0
Bit depth                                : 8 bits
Scan type                                : Progressive
Compression mode                         : Lossy
Bits/(Pixel*Frame)                       : 0.211
Stream size                              : 984 MiB (88%)
Writing library                          : XviD 1.2.1 (UTC 2008-12-04)
Audio
ID                                       : 1
Format                                   : MPEG Audio
Format version                           : Version 1
Format profile                           : Layer 3
Mode                                     : Joint stereo
Mode extension                           : MS Stereo
Codec ID                                 : 55
Codec ID/Hint                            : MP3
Duration                                 : 1h 34mn
Bit rate mode                            : Variable
Bit rate                                 : 192 Kbps
Channel(s)                               : 2 channels
Sampling rate                            : 48.0 KHz
Compression mode                         : Lossy
Stream size                              : 125 MiB (11%)
Alignment                                : Aligned on interleaves
Interleave, duration                     : 24 ms (0.58 video frame)
Interleave, preload duration             : 464 ms
Writing library                          : LAME3.97b
Encoding settings                        : -m j -V 4 -q 3 -lowpass 18.6 --abr 192

[Цитировать]



Показать сообщения:    

Текущее время: 06-Май 13:12

Часовой пояс: UTC + 6


Вы не можете начинать темы
Вы не можете отвечать на сообщения
Вы не можете редактировать свои сообщения
Вы не можете удалять свои сообщения
Вы не можете голосовать в опросах
Вы не можете прикреплять файлы к сообщениям
Вы не можете скачивать файлы

!ВНИМАНИЕ!
Сайт не предоставляет электронные версии произведений, а занимается лишь коллекционированием и каталогизацией ссылок, присылаемых и публикуемых на форуме нашими читателями. Если вы являетесь правообладателем какого-либо представленного материала и не желаете, чтобы ссылка на него находилась в нашем каталоге, свяжитесь с нами, и мы незамедлительно удалим ее. Файлы для обмена на трекере предоставлены пользователями сайта, и администрация не несет ответственности за их содержание. Просьба не заливать файлы, защищенные авторскими правами, а также файлы нелегального содержания!