***Уважаемые пользователи и гости !!! Сайт переехал на новый домен Torrents-club.info. Просьба изменить ваши закладки! ***
 
[ Сегодня идет свободное скачивание без начисления Download ]


Статистика раздачи
Нет
 
   
 
 
 
Не стучи дважды / Don't Knock Twice (2016) WEB-DLRip
«Стукнешь раз - пробудишь ее ото сна, стукнешь два - из мертвых восстанет она...»
Страна: Великобритания
Год выпуска: 2016
Жанр: Ужасы
Перевод: Дублированный [Звук с TS]
Субтитры: Нет
Продолжительность: 01:33:53-Режиссер: Карадог В. Джеймс-В ролях: Кэти Сакхофф, Люси Бойнтон, Хавьер Ботет, Ник Моран, Джордан Болджер, Пунех Хаджимохаммади, Ричард Милан, Каллум Гриффитс, Меган Пурвис, Селин Эванс...-Сюжет фильма: Мама сдала Хлою в приют ещё совсем маленькой девочкой, потому что не могла заботиться о ней. Много лет спустя она хочет забрать дочь обратно, чтобы доказать, что теперь может защитить её. И защищать есть от чего — Хлоя с другом по глупости постучали в дверь старого дома, где по городской легенде жила ведьма, которая похитила их товарища несколько лет назад, и теперь злая сущность придёт за ними.- -Формат: AVI
Качество: WEB-DLRip-Видео: кодек: XviD, размер кадра: 720x304, битрейт: 1 666 Кбит/сек frame rate: 23,976 кадра/сек
Аудио:язык: Русский, кодек: AC-3, число каналов: 2 канала, битрейт: 384 кб/с [DUB] -Имеется реклама.

MI

General
Complete name                  : Ne.Stuchi.Dvazhdu.2016.Dt.WEB-DLRip.14OOMb[mgt].avi
Format                         : AVI
Format/Info                    : Audio Video Interleave
File size                      : 1.35 GiB
Duration                       : 1h 33mn
Overall bit rate               : 2 059 Kbps
Writing application            : VirtualDubMod 1.5.10.2 (build 2540/release)
Writing library                : VirtualDubMod build 2540/release
Video
ID                             : 0
Format                         : MPEG-4 Visual
Format profile                 : Advanced Simple@L5
Format settings, BVOP          : 2
Format settings, QPel          : No
Format settings, GMC           : No warppoints
Format settings, Matrix        : Custom
Codec ID                       : XVID
Codec ID/Hint                  : XviD
Duration                       : 1h 33mn
Bit rate                       : 1 666 Kbps
Width                          : 720 pixels
Height                         : 304 pixels
Display aspect ratio           : 2.35:1
Frame rate                     : 23.976 (24000/1001) fps
Color space                    : YUV
Chroma subsampling             : 4:2:0
Bit depth                      : 8 bits
Scan type                      : Progressive
Compression mode               : Lossy
Bits/(Pixel*Frame)             : 0.317
Stream size                    : 1.09 GiB (81%)
Writing library                : XviD 1.2.1 (UTC 2008-12-04)
Audio
ID                             : 1
Format                         : AC-3
Format/Info                    : Audio Coding 3
Mode extension                 : CM (complete main)
Format settings, Endianness    : Big
Codec ID                       : 2000
Duration                       : 1h 33mn
Bit rate mode                  : Constant
Bit rate                       : 384 Kbps
Channel(s)                     : 2 channels
Channel positions              : Front: L R
Sampling rate                  : 48.0 KHz
Frame rate                     : 31.250 fps (1536 spf)
Compression mode               : Lossy
Stream size                    : 258 MiB (19%)
Alignment                      : Split accross interleaves
Interleave, duration           : 42 ms (1.00 video frame)
Interleave, preload duration   : 500 ms
Скриншоты:

[Цитировать]



Показать сообщения:    

Текущее время: 09-Май 07:01

Часовой пояс: UTC + 6


Вы не можете начинать темы
Вы не можете отвечать на сообщения
Вы не можете редактировать свои сообщения
Вы не можете удалять свои сообщения
Вы не можете голосовать в опросах
Вы не можете прикреплять файлы к сообщениям
Вы не можете скачивать файлы

!ВНИМАНИЕ!
Сайт не предоставляет электронные версии произведений, а занимается лишь коллекционированием и каталогизацией ссылок, присылаемых и публикуемых на форуме нашими читателями. Если вы являетесь правообладателем какого-либо представленного материала и не желаете, чтобы ссылка на него находилась в нашем каталоге, свяжитесь с нами, и мы незамедлительно удалим ее. Файлы для обмена на трекере предоставлены пользователями сайта, и администрация не несет ответственности за их содержание. Просьба не заливать файлы, защищенные авторскими правами, а также файлы нелегального содержания!