***Уважаемые пользователи и гости !!! Сайт переехал на новый домен Torrents-club.info. Просьба изменить ваши закладки! ***
 
[ Сегодня идет свободное скачивание без начисления Download ]


Статистика раздачи
Нет
 
   
 
 
 
 
Агент 077: Миссия Кровавая Мэри / Agente 077 missione Bloody Mary (1965) DVDRip - Производство: Италия, Испания, Франция / Época Films S.A., Fida Cinematografica, Les Productions Jacques Roitfeld
Жанр: Приключения
Режиссер: Серджо Греко
Актеры: Кен Кларк, Хельга Лине, Филипп Эрсен, Мицуоко, Умберто Рахо, Сильвана Якино, Антонио Градоли, Андреа Скотти, Питер Блейдс
Описание:
Таинственные преступники похищают новейшую американскую атомную бомбу, названную «Кровавая Мэри». Спецслужбы предполагают, что похитителями могут быть агенты загадочного маньяка по прозвищу Черная лилия, а заказчиками - китайцы. На поиски бомбы отправляется лучший секретный агент ЦРУ Дик Маллой под кодовым номером 077…
Первый фильм о приключениях суперагента Дика Маллоя.

Продолжительность: 01:37:20
Качество видео: DVDRip [sample]
Перевод: Одноголосый закадровый (В. Белов)
Субтитры: Отсутствуют
Видео: AVC/H.264, 720x352, ~1753 Kbps
Аудио 1: AC3, 2 ch, 192 Kbps, 48.0 kHz │ Русский
Аудио 2: AC3, 2 ch, 192 Kbps, 48.0 kHz │ Итальянский

Mediainfo:

General
Unique ID : 217773700213878721143026037231618571929 (0xA3D5B0648B779D51984EC9501D0B3E99)
Complete name : F:\Downloads\Агент 077. Миссия Кровавая Мэри. 1965. NNMCLUB.mkv
Format : Matroska
Format version : Version 4 / Version 2
File size : 1.45 GiB
Duration : 1h 37mn
Overall bit rate : 2 139 Kbps
Encoded date : UTC 2017-02-04 01:52:31
Writing application : mkvmerge v7.0.0 ('Where We Going') 32bit built on Jun 9 2014 15:08:34
Writing library : libebml v1.3.0 + libmatroska v1.4.1
DURATION : 01:37:20.352000000
NUMBER_OF_FRAMES : 182511
NUMBER_OF_BYTES : 140168448
_STATISTICS_WRITING_APP : mkvmerge v7.0.0 ('Where We Going') 32bit built on Jun 9 2014 15:08:34
_STATISTICS_WRITING_DATE_UTC : 2017-02-04 01:52:31
_STATISTICS_TAGS : BPS DURATION NUMBER_OF_FRAMES NUMBER_OF_BYTES
Video
ID : 1
Format : AVC
Format/Info : Advanced Video Codec
Format profile : High@L3.1
Format settings, CABAC : Yes
Format settings, ReFrames : 8 frames
Codec ID : V_MPEG4/ISO/AVC
Duration : 1h 37mn
Bit rate : 1 753 Kbps
Width : 720 pixels
Height : 352 pixels
Display aspect ratio : 2.045
Frame rate mode : Constant
Frame rate : 25.000 fps
Color space : YUV
Chroma subsampling : 4:2:0
Bit depth : 8 bits
Scan type : Progressive
Bits/(Pixel*Frame) : 0.277
Stream size : 1.16 GiB (80%)
Title : Agente 077 missione Bloody Mary
Writing library : x264 core 125 r2208 d9d2288
Encoding settings : cabac=1 / ref=8 / deblock=1:-1:-1 / analyse=0x3:0x133 / me=umh / subme=9 / psy=1 / psy_rd=1.00:0.10 / mixed_ref=1 / me_range=32 / chroma_me=1 / trellis=2 / 8x8dct=1 / cqm=0 / deadzone=21,11 / fast_pskip=0 / chroma_qp_offset=-3 / threads=6 / lookahead_threads=1 / sliced_threads=0 / nr=0 / decimate=1 / interlaced=0 / bluray_compat=0 / constrained_intra=0 / bframes=3 / b_pyramid=2 / b_adapt=2 / b_bias=0 / direct=3 / weightb=1 / open_gop=0 / weightp=2 / keyint=250 / keyint_min=25 / scenecut=40 / intra_refresh=0 / rc_lookahead=60 / rc=2pass / mbtree=1 / bitrate=1753 / ratetol=1.0 / qcomp=0.60 / qpmin=0 / qpmax=69 / qpstep=4 / cplxblur=20.0 / qblur=0.5 / ip_ratio=1.40 / aq=1:1.00
Language : Italian
Default : Yes
Forced : No
Audio #1
ID : 2
Format : AC-3
Format/Info : Audio Coding 3
Mode extension : CM (complete main)
Format settings, Endianness : Big
Codec ID : A_AC3
Duration : 1h 37mn
Bit rate mode : Constant
Bit rate : 192 Kbps
Channel(s) : 2 channels
Channel positions : Front: L R
Sampling rate : 48.0 KHz
Bit depth : 16 bits
Compression mode : Lossy
Stream size : 134 MiB (9%)
Title : Одноголосый закадровый (В. Белов)
Language : Russian
Default : Yes
Forced : No
Audio #2
ID : 3
Format : AC-3
Format/Info : Audio Coding 3
Mode extension : CM (complete main)
Format settings, Endianness : Big
Codec ID : A_AC3
Duration : 1h 37mn
Bit rate mode : Constant
Bit rate : 192 Kbps
Channel(s) : 2 channels
Channel positions : Front: L R
Sampling rate : 48.0 KHz
Bit depth : 16 bits
Compression mode : Lossy
Stream size : 134 MiB (9%)
Title : Оригинал
Language : Italian
Default : No
Forced : No
Скриншоты:

Дополнительные скриншоты:

[Цитировать]



Показать сообщения:    

Текущее время: 12-Май 01:50

Часовой пояс: UTC + 6


Вы не можете начинать темы
Вы не можете отвечать на сообщения
Вы не можете редактировать свои сообщения
Вы не можете удалять свои сообщения
Вы не можете голосовать в опросах
Вы не можете прикреплять файлы к сообщениям
Вы не можете скачивать файлы

!ВНИМАНИЕ!
Сайт не предоставляет электронные версии произведений, а занимается лишь коллекционированием и каталогизацией ссылок, присылаемых и публикуемых на форуме нашими читателями. Если вы являетесь правообладателем какого-либо представленного материала и не желаете, чтобы ссылка на него находилась в нашем каталоге, свяжитесь с нами, и мы незамедлительно удалим ее. Файлы для обмена на трекере предоставлены пользователями сайта, и администрация не несет ответственности за их содержание. Просьба не заливать файлы, защищенные авторскими правами, а также файлы нелегального содержания!