***Уважаемые пользователи и гости !!! Сайт переехал на новый домен Torrents-club.info. Просьба изменить ваши закладки! ***
 
[ Сегодня идет свободное скачивание без начисления Download ]


Статистика раздачи
Нет
 
   
 
 
 
Парк Горького (Gorky Park) - The Best 2013
-Жанр: Rock
Страна: Россия
Год издания: 2013
Аудиокодек: FLAC
Тип рипа: image+.cue
Битрейт аудио: lossless
Продолжительность: 01:18:07
Источник (релизер): 88lena888
Наличие сканов в содержимом раздачи: да--

01. Moscow Calling
02. Stare
03. Welcome To The Gorky Park
04. Stranger
05. Bang
06. Don't Pull The Trigger
07. I'm Going Down
08. Jenny Loses Me
09. City Of Pain
10. Politics Of Love
11. Strike
12. Tell Me Why
13. My Generation
14. Ocean
15. Two Candles
16. All Roads
17. Tomorrow
-

Log Exact Audio Copy

Exact Audio Copy V1.0 beta 1 from 15. November 2010
EAC extraction logfile from 16. January 2013, 18:22
Gorky Park / The Best
Used drive  : ATAPI   iHAP122   W   Adapter: 1  ID: 0
Read mode               : Secure
Utilize accurate stream : Yes
Defeat audio cache      : Yes
Make use of C2 pointers : No
Read offset correction                      : 6
Overread into Lead-In and Lead-Out          : No
Fill up missing offset samples with silence : Yes
Delete leading and trailing silent blocks   : No
Null samples used in CRC calculations       : Yes
Used interface                              : Native Win32 interface for Win NT & 2000
Used output format : Internal WAV Routines
Sample format      : 44.100 Hz; 16 Bit; Stereo
TOC of the extracted CD
     Track |   Start  |  Length  | Start sector | End sector
    ---------------------------------------------------------
        1  |  0:00.00 |  5:09.62 |         0    |    23236
        2  |  5:09.62 |  4:58.00 |     23237    |    45586
        3  | 10:07.62 |  4:14.64 |     45587    |    64700
        4  | 14:22.51 |  4:51.12 |     64701    |    86537
        5  | 19:13.63 |  4:33.08 |     86538    |   107020
        6  | 23:46.71 |  4:55.20 |    107021    |   129165
        7  | 28:42.16 |  4:30.37 |    129166    |   149452
        8  | 33:12.53 |  3:43.40 |    149453    |   166217
        9  | 36:56.18 |  4:57.68 |    166218    |   188560
       10  | 41:54.11 |  4:06.25 |    188561    |   207035
       11  | 46:00.36 |  3:51.70 |    207036    |   224430
       12  | 49:52.31 |  3:25.00 |    224431    |   239805
       13  | 53:17.31 |  4:47.05 |    239806    |   261335
       14  | 58:04.36 |  3:54.25 |    261336    |   278910
       15  | 61:58.61 |  5:01.58 |    278911    |   301543
       16  | 67:00.44 |  5:11.38 |    301544    |   324906
       17  | 72:12.07 |  5:55.50 |    324907    |   351581
Range status and errors
Selected range
     Filename C:\MusicBox\Gorky Park - The Best.wav
     Peak level 100.0 %
     Extraction speed 0.7 X
     Range quality 99.9 %
     Copy CRC C868524D
     Copy OK
No errors occurred
End of status report

Log AudioChecker

AUDIOCHECKER v2.0 beta (build 457) - by Dester - opdester@freemail.hu
~~~~~~~~~~~~~~~~~~~~~~~~~~~~~~~~~~
-=== НЕ РЕДАКТИРУЙТЕ ЭТОТ ФАЙЛ! ===-
Путь: ...\MusicBox
1 -=- Gorky Park - The Best.flac -=- CDDA (100%)
7783156
-

[Цитировать]



Показать сообщения:    

Текущее время: 06-Май 12:16

Часовой пояс: UTC + 6


Вы не можете начинать темы
Вы не можете отвечать на сообщения
Вы не можете редактировать свои сообщения
Вы не можете удалять свои сообщения
Вы не можете голосовать в опросах
Вы не можете прикреплять файлы к сообщениям
Вы не можете скачивать файлы

!ВНИМАНИЕ!
Сайт не предоставляет электронные версии произведений, а занимается лишь коллекционированием и каталогизацией ссылок, присылаемых и публикуемых на форуме нашими читателями. Если вы являетесь правообладателем какого-либо представленного материала и не желаете, чтобы ссылка на него находилась в нашем каталоге, свяжитесь с нами, и мы незамедлительно удалим ее. Файлы для обмена на трекере предоставлены пользователями сайта, и администрация не несет ответственности за их содержание. Просьба не заливать файлы, защищенные авторскими правами, а также файлы нелегального содержания!