***Уважаемые пользователи и гости !!! Сайт переехал на новый домен Torrents-club.info. Просьба изменить ваши закладки! ***
 
[ Сегодня идет свободное скачивание без начисления Download ]


Статистика раздачи
Нет
 
   
 
 
 
 
Макс Стил / Max Steel (2016) HDRip-AVC Год выпуска: 2016
Страна: Великобритания, США
Производство: Dolphin Entertainment, Ingenious Media, Mattel Entertainment
Жанр: Фантастика, боевик, приключения
Режиссёр: Стюарт Хендлер
В ролях: Бен Уинчелл, Джош Бренер, Мария Белло, Энди Гарсиа, Ана Виллафейн, Майк Дойл, Филлип ДеВона, Билли Слотер, Эл Митчелл, Лоуренс Као
Перевод: Дублированный | iTunes
Субтитры: Английские
Описание: Когда подросток Макс МакГрат обнаруживает, что его тело может генерировать наиболее мощную энергию во Вселенной, ему приходится встретиться с единственным существом, способным совладать с такой энергией — таинственным техно-органическим инопланетянином по имени Стил.

Качество: HDRip-AVC
Продолжительность: 01:32:27
Формат: MKV
Видео кодек: x264
Аудио кодек: AC3
Видео: 720x300 (2.40:1), 23,976 fps, x264 ~1873 kbps avg, 0.362 bit/pixel
Аудио: 48 kHz, AC3 Dolby Digital, 3/2 (L,C,R,l,r) + LFE ch, ~384.00 kbps avg | iTunes RUS
Дата премьеры (мир): 13 октября 2016
Дата премьеры (РФ): 27 октября 2016, «Централ Партнершип»

MediaInfo

Общее
Уникальный идентификатор : 234340095726944880140946406700990290742 (0xB04C42C0B73D68BBB67B831F8A435B36)
Полное имя : D:Max.Steel.2016.BDRip(AVC).ExKinoRay.mkv
Формат : Matroska
Версия формата : Version 2
Размер файла : 1,46 Гбайт
Продолжительность : 1 ч. 32 м.
Общий поток : 2253 Кбит/сек
Название фильма : Max.Steel.2016 #TorpedoUK#
Дата кодирования : UTC 2017-02-04 14:25:31
Программа кодирования : mkvmerge v7.8.0 ('River Man') 32bit built on Apr 3 2015 12:11:22
Библиотека кодирования : libebml v1.3.1 + libmatroska v1.4.2
Видео
Идентификатор : 1
Формат : AVC
Формат/Информация : Advanced Video Codec
Профиль формата : High@L4.1
Параметр CABAC формата : Да
Параметр ReFrames формата : 10 кадров
Идентификатор кодека : V_MPEG4/ISO/AVC
Продолжительность : 1 ч. 32 м.
Битрейт : 1873 Кбит/сек
Ширина : 720 пикселей
Высота : 300 пикселей
Соотношение сторон : 2,40:1
Режим частоты кадров : Постоянный
Частота кадров : 23,976 (24000/1001) кадра/сек
Цветовое пространство : YUV
Субдискретизация насыщенности : 4:2:0
Битовая глубина : 8 бит
Тип развёртки : Прогрессивная
Бит/(Пиксели*Кадры) : 0.362
Размер потока : 1,18 Гбайт (81%)
Библиотека кодирования : x264 core 146 r2538 121396c
Настройки программы : cabac=1 / ref=10 / deblock=1:-3:-3 / analyse=0x3:0x133 / me=umh / subme=10 / psy=1 / psy_rd=0.00:0.03 / mixed_ref=1 / me_range=48 / chroma_me=1 / trellis=2 / 8x8dct=1 / cqm=0 / deadzone=21,11 / fast_pskip=0 / chroma_qp_offset=-1 / threads=6 / lookahead_threads=1 / sliced_threads=0 / nr=0 / decimate=0 / interlaced=0 / bluray_compat=0 / constrained_intra=0 / bframes=10 / b_pyramid=2 / b_adapt=2 / b_bias=0 / direct=3 / weightb=1 / open_gop=0 / weightp=2 / keyint=240 / keyint_min=23 / scenecut=40 / intra_refresh=0 / rc_lookahead=40 / rc=2pass / mbtree=0 / bitrate=1873 / ratetol=1.0 / qcomp=0.60 / qpmin=0 / qpmax=69 / qpstep=4 / cplxblur=20.0 / qblur=0.5 / vbv_maxrate=50000 / vbv_bufsize=62500 / nal_hrd=none / filler=0 / ip_ratio=1.40 / pb_ratio=1.30 / aq=1:1.00
Default : Да
Forced : Нет
Аудио
Идентификатор : 2
Формат : AC-3
Формат/Информация : Audio Coding 3
Расширение режима : CM (complete main)
Параметр Endianness формата : Big
Идентификатор кодека : A_AC3
Продолжительность : 1 ч. 32 м.
Вид битрейта : Постоянный
Битрейт : 384 Кбит/сек
Каналы : 6 каналов
Расположение каналов : Front: L C R, Side: L R, LFE
Частота : 48,0 КГц
Частота кадров : 31,250 кадров/сек (1536 spf)
Битовая глубина : 16 бит
Метод сжатия : С потерями
Размер потока : 255 Мбайт (17%)
Default : Да
Forced : Нет
Текст #1
Идентификатор : 3
Формат : UTF-8
Идентификатор кодека : S_TEXT/UTF8
Идентификатор кодека/Информация : UTF-8 Plain Text
Заголовок : English
Язык : English
Default : Да
Forced : Нет
Statistics Tags Issue : mkvmerge v8.3.0 ('Over the Horizon') 64bit 2017-02-03 21:21:52 / mkvmerge v7.8.0 ('River Man') 32bit built on Apr 3 2015 12:11:22 2017-02-04 14:25:31
FromStats_BitRate : 53
FromStats_Duration : 01:25:24.114000000
FromStats_FrameCount : 1145
FromStats_StreamSize : 34441
Текст #2
Идентификатор : 4
Формат : UTF-8
Идентификатор кодека : S_TEXT/UTF8
Идентификатор кодека/Информация : UTF-8 Plain Text
Заголовок : English-SDH
Язык : English
Default : Нет
Forced : Нет
Statistics Tags Issue : mkvmerge v8.3.0 ('Over the Horizon') 64bit 2017-02-03 21:21:52 / mkvmerge v7.8.0 ('River Man') 32bit built on Apr 3 2015 12:11:22 2017-02-04 14:25:31
FromStats_BitRate : 59
FromStats_Duration : 01:25:24.114000000
FromStats_FrameCount : 1284
FromStats_StreamSize : 38151
Текст #3
Идентификатор : 5
Формат : UTF-8
Идентификатор кодека : S_TEXT/UTF8
Идентификатор кодека/Информация : UTF-8 Plain Text
Заголовок : Dutch
Язык : Dutch
Default : Нет
Forced : Нет
Statistics Tags Issue : mkvmerge v8.3.0 ('Over the Horizon') 64bit 2017-02-03 21:21:52 / mkvmerge v7.8.0 ('River Man') 32bit built on Apr 3 2015 12:11:22 2017-02-04 14:25:31
FromStats_BitRate : 46
FromStats_Duration : 01:25:22.478000000
FromStats_FrameCount : 804
FromStats_StreamSize : 29981
Текст #4
Идентификатор : 6
Формат : UTF-8
Идентификатор кодека : S_TEXT/UTF8
Идентификатор кодека/Информация : UTF-8 Plain Text
Заголовок : Greek
Язык : Greek
Default : Нет
Forced : Нет
Statistics Tags Issue : mkvmerge v8.3.0 ('Over the Horizon') 64bit 2017-02-03 21:21:52 / mkvmerge v7.8.0 ('River Man') 32bit built on Apr 3 2015 12:11:22 2017-02-04 14:25:31
FromStats_BitRate : 82
FromStats_Duration : 01:25:33.342000000
FromStats_FrameCount : 901
FromStats_StreamSize : 52867
Текст #5
Идентификатор : 7
Формат : UTF-8
Идентификатор кодека : S_TEXT/UTF8
Идентификатор кодека/Информация : UTF-8 Plain Text
Заголовок : Portuguese
Язык : Portuguese
Default : Нет
Forced : Нет
Statistics Tags Issue : mkvmerge v8.3.0 ('Over the Horizon') 64bit 2017-02-03 21:21:52 / mkvmerge v7.8.0 ('River Man') 32bit built on Apr 3 2015 12:11:22 2017-02-04 14:25:31
FromStats_BitRate : 49
FromStats_Duration : 01:25:22.686000000
FromStats_FrameCount : 861
FromStats_StreamSize : 31962
Текст #6
Идентификатор : 8
Формат : UTF-8
Идентификатор кодека : S_TEXT/UTF8
Идентификатор кодека/Информация : UTF-8 Plain Text
Заголовок : Spanish
Язык : Spanish
Default : Нет
Forced : Нет
Statistics Tags Issue : mkvmerge v8.3.0 ('Over the Horizon') 64bit 2017-02-03 21:21:52 / mkvmerge v7.8.0 ('River Man') 32bit built on Apr 3 2015 12:11:22 2017-02-04 14:25:31
FromStats_BitRate : 54
FromStats_Duration : 01:25:19.013000000
FromStats_FrameCount : 1027
FromStats_StreamSize : 34591
Текст #7
Идентификатор : 9
Формат : UTF-8
Идентификатор кодека : S_TEXT/UTF8
Идентификатор кодека/Информация : UTF-8 Plain Text
Заголовок : Vietnamese
Язык : Vietnamese
Default : Нет
Forced : Нет
Statistics Tags Issue : mkvmerge v8.3.0 ('Over the Horizon') 64bit 2017-02-03 21:21:52 / mkvmerge v7.8.0 ('River Man') 32bit built on Apr 3 2015 12:11:22 2017-02-04 14:25:31
FromStats_BitRate : 72
FromStats_Duration : 01:25:17.630000000
FromStats_FrameCount : 969
FromStats_StreamSize : 46070
Меню
00:00:00.000 : en:Chapter 1
00:04:43.283 : en:Chapter 2
00:10:19.494 : en:Chapter 3
00:15:11.911 : en:Chapter 4
00:19:45.142 : en:Chapter 5
00:23:05.342 : en:Chapter 6
00:26:47.147 : en:Chapter 7
00:30:20.277 : en:Chapter 8
00:35:22.495 : en:Chapter 9
00:38:15.668 : en:Chapter 10
00:43:01.287 : en:Chapter 11
00:48:07.510 : en:Chapter 12
00:54:16.378 : en:Chapter 13
01:00:07.062 : en:Chapter 14
01:03:43.361 : en:Chapter 15
01:08:38.197 : en:Chapter 16
01:13:22.940 : en:Chapter 17
01:19:59.628 : en:Chapter 18
01:24:29.982 : en:Chapter 19
01:26:45.826 : en:Chapter 20

Скриншоты



[Цитировать]



Показать сообщения:    

Текущее время: 19-Июн 06:25

Часовой пояс: UTC + 6


Вы не можете начинать темы
Вы не можете отвечать на сообщения
Вы не можете редактировать свои сообщения
Вы не можете удалять свои сообщения
Вы не можете голосовать в опросах
Вы не можете прикреплять файлы к сообщениям
Вы не можете скачивать файлы

!ВНИМАНИЕ!
Сайт не предоставляет электронные версии произведений, а занимается лишь коллекционированием и каталогизацией ссылок, присылаемых и публикуемых на форуме нашими читателями. Если вы являетесь правообладателем какого-либо представленного материала и не желаете, чтобы ссылка на него находилась в нашем каталоге, свяжитесь с нами, и мы незамедлительно удалим ее. Файлы для обмена на трекере предоставлены пользователями сайта, и администрация не несет ответственности за их содержание. Просьба не заливать файлы, защищенные авторскими правами, а также файлы нелегального содержания!