***Уважаемые пользователи и гости !!! Сайт переехал на новый домен Torrents-club.info. Просьба изменить ваши закладки! ***
 
[ Сегодня идет свободное скачивание без начисления Download ]


Статистика раздачи
Нет
 
   
 
 
 
Justin Timberlake - FutureSex/LoveSounds (Deluxe Edition)
Жанр: Pop
Год выпуска диска: 2006
Производитель диска: USA
Аудио кодек: FLAC
Тип рипа: tracks+.cue
Битрейт аудио: lossless
Продолжительность: 1:19:48
Трэклист:
1. "FutureSex/LoveSound" - 4:01
2. "SexyBack""(featuring Timbaland) - 4:02
3. "Sexy Ladies/Let Me Talk to You (Prelude)" - 5:32 (3:59/1:33)
4. "My Love"(featuring T.I.) - 4:36
5. "LoveStoned/I Think She Knows (Interlude)" - 7:24 (4:55/2.29)
6. "What Goes Around.../...Comes Around" (Interlude) (additional vocals by Timbaland) - 7:28 (5:21/2:07)
7. "Chop Me Up"(featuring Timbaland & Three 6 Mafia) - 5:04
8. "Damn Girl"(featuring will.i.am) - 5:12
9. "Summer Love/Set the Mood" (Prelude) - 6:24 (4:13/2:11)
10. "Until the End of Time""(featuring The Benjamin Wright Orchestra) - 5:22
11. "Losing My Way"(featuring Hezekiah Walker & The Love Fellowship Choir) - 5:22
12. "(Another Song) All Over Again" - 5:45
13. "Until the End of Time"(duet with Beyoncé) - 5:22
14. "SexyBack" (DJ Wayne Williams Ol' Skool Remix) (featuring Missy Elliott & Timbaland) - 4:16
15. "Sexy Ladies" (Remix) (featuring 50 Cent, additional vocals by Timbaland) - 3:51

Отчёт EAC

Exact Audio Copy V0.99 prebeta 4 from 23. January 2008
EAC extraction logfile from 19. March 2009, 16:31
Justin Timberlake / FutureSex/LoveSounds [Deluxe Edition]
Used drive : TSSTcorpCD/DVDW TS-H652D Adapter: 0 ID: 0
Read mode : Secure
Utilize accurate stream : Yes
Defeat audio cache : Yes
Make use of C2 pointers : No
Read offset correction : 6
Overread into Lead-In and Lead-Out : No
Fill up missing offset samples with silence : Yes
Delete leading and trailing silent blocks : No
Null samples used in CRC calculations : Yes
Used interface : Native Win32 interface for Win NT & 2000
Gap handling : Appended to previous track
Used output format : User Defined Encoder
Selected bitrate : 160 kBit/s
Quality : High
Add ID3 tag : No
Command line compressor : C:\Program Files\Exact Audio Copy\Flac\flac.exe
Additional command line options : -V -8 -T "artist=%a" -T "title=%t" -T "album=%g" -T "date=%y" -T "tracknumber=%n" -T "genre=%m" %s
TOC of the extracted CD
Track | Start | Length | Start sector | End sector
---------------------------------------------------------
1 | 0:00.00 | 4:02.17 | 0 | 18166
2 | 4:02.17 | 4:02.60 | 18167 | 36376
3 | 8:05.02 | 5:32.38 | 36377 | 61314
4 | 13:37.40 | 4:36.12 | 61315 | 82026
5 | 18:13.52 | 7:24.28 | 82027 | 115354
6 | 25:38.05 | 7:28.40 | 115355 | 148994
7 | 33:06.45 | 5:04.12 | 148995 | 171806
8 | 38:10.57 | 5:12.33 | 171807 | 195239
9 | 43:23.15 | 6:24.10 | 195240 | 224049
10 | 49:47.25 | 5:22.47 | 224050 | 248246
11 | 55:09.72 | 5:22.05 | 248247 | 272401
12 | 60:32.02 | 5:46.43 | 272402 | 298394
13 | 66:18.45 | 5:22.07 | 298395 | 322551
14 | 71:40.52 | 4:16.40 | 322552 | 341791
15 | 75:57.17 | 3:50.53 | 341792 | 359094
Track 1
Filename J:\My Music\Justin Timberlake\FutureSex_LoveSounds [Deluxe Edition]\01 FutureSex,LoveSound.wav
Pre-gap length 0:00:02.00
Peak level 100.0 %
Track quality 100.0 %
Test CRC 847F8C27
Copy CRC 847F8C27
Accurately ripped (confidence 8) [70BA045B]
Copy OK
Track 2
Filename J:\My Music\Justin Timberlake\FutureSex_LoveSounds [Deluxe Edition]\02 SexyBack.wav
Peak level 100.0 %
Track quality 100.0 %
Test CRC 912A6E4E
Copy CRC 912A6E4E
Accurately ripped (confidence 8) [B0B110EA]
Copy OK
Track 3
Filename J:\My Music\Justin Timberlake\FutureSex_LoveSounds [Deluxe Edition]\03 Sexy Ladies,Let Me Talk To You (Prelude).wav
Peak level 100.0 %
Track quality 100.0 %
Test CRC 5FE76B94
Copy CRC 5FE76B94
Accurately ripped (confidence 8) [C7776E4A]
Copy OK
Track 4
Filename J:\My Music\Justin Timberlake\FutureSex_LoveSounds [Deluxe Edition]\04 My Love.wav
Peak level 100.0 %
Track quality 100.0 %
Test CRC F1801110
Copy CRC F1801110
Accurately ripped (confidence 8) [F360C881]
Copy OK
Track 5
Filename J:\My Music\Justin Timberlake\FutureSex_LoveSounds [Deluxe Edition]\05 LoveStoned,I Think She Knows (Interlude).wav
Peak level 100.0 %
Track quality 100.0 %
Test CRC E7A4DD0B
Copy CRC E7A4DD0B
Accurately ripped (confidence 8) [23AF25F5]
Copy OK
Track 6
Filename J:\My Music\Justin Timberlake\FutureSex_LoveSounds [Deluxe Edition]\06 What Goes Around…,…Comes Around (Interlude).wav
Peak level 100.0 %
Track quality 100.0 %
Test CRC EBA07A1C
Copy CRC EBA07A1C
Accurately ripped (confidence 8) [76C9607C]
Copy OK
Track 7
Filename J:\My Music\Justin Timberlake\FutureSex_LoveSounds [Deluxe Edition]\07 Chop Me Up.wav
Peak level 100.0 %
Track quality 99.9 %
Test CRC 40610022
Copy CRC 40610022
Accurately ripped (confidence 8) [D9303EE9]
Copy OK
Track 8
Filename J:\My Music\Justin Timberlake\FutureSex_LoveSounds [Deluxe Edition]\08 Damn Girl.wav
Peak level 100.0 %
Track quality 100.0 %
Test CRC 1AD1CC0C
Copy CRC 1AD1CC0C
Accurately ripped (confidence 7) [B1F6855E]
Copy OK
Track 9
Filename J:\My Music\Justin Timberlake\FutureSex_LoveSounds [Deluxe Edition]\09 Summer Love,Set The Mood (Prelude).wav
Peak level 100.0 %
Track quality 100.0 %
Test CRC D986C463
Copy CRC D986C463
Accurately ripped (confidence 8) [7995F778]
Copy OK
Track 10
Filename J:\My Music\Justin Timberlake\FutureSex_LoveSounds [Deluxe Edition]\10 Until The End Of Time.wav
Peak level 100.0 %
Track quality 100.0 %
Test CRC D5AA1F7B
Copy CRC D5AA1F7B
Accurately ripped (confidence 8) [46311B4D]
Copy OK
Track 11
Filename J:\My Music\Justin Timberlake\FutureSex_LoveSounds [Deluxe Edition]\11 Losing My Way.wav
Peak level 100.0 %
Track quality 99.9 %
Test CRC 7343B35E
Copy CRC 7343B35E
Accurately ripped (confidence 8) [53B70C29]
Copy OK
Track 12
Filename J:\My Music\Justin Timberlake\FutureSex_LoveSounds [Deluxe Edition]\12 (Another Song) All Over Again.wav
Peak level 100.0 %
Track quality 100.0 %
Test CRC DEA000DF
Copy CRC DEA000DF
Accurately ripped (confidence 8) [480BD2B9]
Copy OK
Track 13
Filename J:\My Music\Justin Timberlake\FutureSex_LoveSounds [Deluxe Edition]\13 Until The End Of Time.wav
Peak level 99.8 %
Track quality 99.9 %
Test CRC 5F617FAC
Copy CRC 5F617FAC
Accurately ripped (confidence 8) [907DAFD1]
Copy OK
Track 14
Filename J:\My Music\Justin Timberlake\FutureSex_LoveSounds [Deluxe Edition]\14 SexyBack (DJ Wayne Williams Ol' Skool Remix).wav
Peak level 100.0 %
Track quality 100.0 %
Test CRC 72CBBCBD
Copy CRC 72CBBCBD
Accurately ripped (confidence 9) [3296A71E]
Copy OK
Track 15
Filename J:\My Music\Justin Timberlake\FutureSex_LoveSounds [Deluxe Edition]\15 Sexy Ladies.wav
Peak level 100.0 %
Track quality 100.0 %
Test CRC 108259DE
Copy CRC 108259DE
Accurately ripped (confidence 9) [BE18FA9D]
Copy OK
All tracks accurately ripped
No errors occurred
End of status report

Audiochecker

AUDIOCHECKER v2.0 beta (build 457) - by Dester - opdester@freemail.hu
~~~~~~~~~~~~~~~~~~~~~~~~~~~~~~~~~~
-=== DO NOT EDIT THIS FILE! ===-
Path: ...\Justin Timberlake - FutureSex - LoveSounds (Deluxe Edition)
01 -=- 01 FutureSex,LoveSound.flac -=- CDDA (100%)
02 -=- 02 SexyBack.flac -=- CDDA (100%)
03 -=- 03 Sexy Ladies,Let Me Talk To You (Prelude).flac -=- CDDA (100%)
04 -=- 04 My Love.flac -=- CDDA (100%)
05 -=- 05 LoveStoned,I Think She Knows (Interlude).flac -=- CDDA (100%)
06 -=- 06 What Goes Around…,…Comes Around (Interlude).flac -=- CDDA (100%)
07 -=- 07 Chop Me Up.flac -=- CDDA (100%)
08 -=- 08 Damn Girl.flac -=- CDDA (100%)
09 -=- 09 Summer Love,Set The Mood (Prelude).flac -=- CDDA (100%)
10 -=- 10 Until The End Of Time.flac -=- CDDA (100%)
11 -=- 11 Losing My Way.flac -=- CDDA (100%)
12 -=- 12 (Another Song) All Over Again.flac -=- CDDA (99%)
13 -=- 13 Until The End Of Time.flac -=- CDDA (100%)
14 -=- 14 SexyBack (DJ Wayne Williams Ol' Skool Remix).flac -=- CDDA (100%)
15 -=- 15 Sexy Ladies.flac -=- CDDA (100%)
Summary 99,93% CDDA
36254532

.Cue

REM GENRE Pop
REM DATE 2007
REM DISCID E812B30F
REM COMMENT "ExactAudioCopy v0.99pb4"
FILE "01 FutureSex,LoveSound.wav" WAVE
TRACK 01 AUDIO
INDEX 01 00:00:00
FILE "02 SexyBack.wav" WAVE
TRACK 02 AUDIO
INDEX 01 00:00:00
FILE "03 Sexy Ladies,Let Me Talk To You (Prelude).wav" WAVE
TRACK 03 AUDIO
INDEX 01 00:00:00
FILE "04 My Love.wav" WAVE
TRACK 04 AUDIO
INDEX 01 00:00:00
FILE "05 LoveStoned,I Think She Knows (Interlude).wav" WAVE
TRACK 05 AUDIO
INDEX 01 00:00:00
FILE "06 What Goes Around…,…Comes Around (Interlude).wav" WAVE
TRACK 06 AUDIO
INDEX 01 00:00:00
FILE "07 Chop Me Up.wav" WAVE
TRACK 07 AUDIO
INDEX 01 00:00:00
FILE "08 Damn Girl.wav" WAVE
TRACK 08 AUDIO
INDEX 01 00:00:00
FILE "09 Summer Love,Set The Mood (Prelude).wav" WAVE
TRACK 09 AUDIO
INDEX 01 00:00:00
FILE "10 Until The End Of Time.wav" WAVE
TRACK 10 AUDIO
INDEX 01 00:00:00
FILE "11 Losing My Way.wav" WAVE
TRACK 11 AUDIO
INDEX 01 00:00:00
FILE "12 (Another Song) All Over Again.wav" WAVE
TRACK 12 AUDIO
INDEX 01 00:00:00
FILE "13 Until The End Of Time.wav" WAVE
TRACK 13 AUDIO
INDEX 01 00:00:00
FILE "14 SexyBack (DJ Wayne Williams Ol' Skool Remix).wav" WAVE
TRACK 14 AUDIO
INDEX 01 00:00:00
FILE "15 Sexy Ladies.wav" WAVE
TRACK 15 AUDIO
INDEX 01 00:00:00

[Цитировать]

Hodjik дополняй свою дискографию!

[Цитировать]



Показать сообщения:    

Текущее время: 07-Май 13:41

Часовой пояс: UTC + 6


Вы не можете начинать темы
Вы не можете отвечать на сообщения
Вы не можете редактировать свои сообщения
Вы не можете удалять свои сообщения
Вы не можете голосовать в опросах
Вы не можете прикреплять файлы к сообщениям
Вы не можете скачивать файлы

!ВНИМАНИЕ!
Сайт не предоставляет электронные версии произведений, а занимается лишь коллекционированием и каталогизацией ссылок, присылаемых и публикуемых на форуме нашими читателями. Если вы являетесь правообладателем какого-либо представленного материала и не желаете, чтобы ссылка на него находилась в нашем каталоге, свяжитесь с нами, и мы незамедлительно удалим ее. Файлы для обмена на трекере предоставлены пользователями сайта, и администрация не несет ответственности за их содержание. Просьба не заливать файлы, защищенные авторскими правами, а также файлы нелегального содержания!