***Уважаемые пользователи и гости !!! Сайт переехал на новый домен Torrents-club.info. Просьба изменить ваши закладки! ***
 
[ Сегодня идет свободное скачивание без начисления Download ]


Статистика раздачи
Нет
 
   
 
 
 
 
День окончания школы / Graduation Day (1981) BDRemux 1080р Информация о фильме
Название: День окончания школы
Оригинальное название: Graduation Day
Год выхода: 1981
Жанр: ужасы, детектив
Режиссер: Херб Фрид
В ролях: Кристофер Джордж, Патч МакКензи, Э. Дэнни Мерфи, Э.Дж. Пикер, Майкл Патаки, Ричард Балин
О фильме: Спортсменка Лаура Рамстед погибает при очень странных обстоятельствах сразу после окончания велогонки. Ее друг Кевин не может поверить в случайность ее смерти даже месяц спустя. За день до выпускного вечера сестра Лауры Энн возвращается в колледж, чтобы принять специальный приз в память о погибшей сестре. Она замечает, что Кевин преследует ее. Вскоре после этого одна студентка найдена мертвой в лесу. Она становится первой жертвой в череде таинственных убийств. Интересно, что мертвыми оказываются только члены спортивной команды колледжа…

Страна: США
Продолжительность: 01:36:42
Перевод: Любительский (одноголосый закадровый) А. Васильев
Субтитры: отсутствуют
Оригинальная аудиодорожка: английский
Файл
Качество: BDRemux 1080р
Видео: 1920x1080 / MPEG-4 AVC Video / 29738 kbps / 1080p / 23.976 fps / 16:9 / High Profile 4.1
Аудио 1: Русский, AC3 2.0, 256 Kbps, 48,0 КГц
Аудио 2: English, FLAC 1.0 ~681 kbps (Original)
Аудио 3: English, AC3 1.0 128 kbps (Commentary with producer David Baughn)
Аудио 4: English, AC3 1.0 128 kbps (Commentary with The Hysteria Continues)

Скриншоты

MediaInfo

Общее
Уникальный идентификатор : 193028311817619917305993948949470946408 (0x9137E68CB31FAC8E809905CEFE5AA468)
Полное имя : H:TRACKERSGraduation.Day.1981.BDRemux.1080p.Rus.Eng.mkv
Формат : Matroska
Версия формата : Version 4 / Version 2
Размер файла : 20,9 Гбайт
Продолжительность : 1 ч. 36 м.
Режим общего битрейта : Переменный
Общий поток : 30,9 Мбит/сек
Название фильма : Graduation Day 1981
Дата кодирования : UTC 2014-10-26 13:53:11
Программа кодирования : mkvmerge v6.5.0 ('Isn't she lovely') built on Oct 20 2013 12:50:05
Библиотека кодирования : libebml v1.3.0 + libmatroska v1.4.1
Видео
Идентификатор : 1
Формат : AVC
Формат/Информация : Advanced Video Codec
Профиль формата : High@L4.1
Параметр CABAC формата : Да
Параметр ReFrames формата : 3 кадра
Идентификатор кодека : V_MPEG4/ISO/AVC
Продолжительность : 1 ч. 36 м.
Вид битрейта : Переменный
Максимальный битрейт : 35,0 Мбит/сек
Ширина : 1920 пикселей
Высота : 1080 пикселей
Соотношение сторон : 16:9
Режим частоты кадров : Постоянный
Частота кадров : 23,976 кадра/сек
Стандарт вещания : NTSC
Цветовое пространство : YUV
Субдискретизация насыщенности : 4:2:0
Битовая глубина : 8 бит
Тип развёртки : Прогрессивная
Заголовок : Graduation Day 1981
Default : Нет
Forced : Нет
Основные цвета : BT.709
Характеристики трансфера : BT.709
Коэффициенты матрицы : BT.709
Аудио #1
Идентификатор : 2
Формат : AC-3
Формат/Информация : Audio Coding 3
Расширение режима : CM (complete main)
Параметр Endianness формата : Big
Идентификатор кодека : A_AC3
Продолжительность : 1 ч. 36 м.
Вид битрейта : Постоянный
Битрейт : 256 Кбит/сек
Каналы : 2 канала
Расположение каналов : Front: L R
Частота : 48,0 КГц
Битовая глубина : 16 бит
Метод сжатия : С потерями
Размер потока : 177 Мбайт (1%)
Заголовок : Vasilyev AC3 2.0 256 kbps
Язык : Russian
Default : Нет
Forced : Нет
Аудио #2
Идентификатор : 3
Формат : FLAC
Формат/Информация : Free Lossless Audio Codec
Идентификатор кодека : A_FLAC
Продолжительность : 1 ч. 36 м.
Вид битрейта : Переменный
Каналы : 1 канал
Частота : 48,0 КГц
Битовая глубина : 24 бит
Заголовок : Original FLAC 1.0 ~681 kbps
Библиотека кодирования : libFLAC 1.2.1 (UTC 2007-09-17)
Язык : English
Default : Нет
Forced : Нет
Аудио #3
Идентификатор : 4
Формат : AC-3
Формат/Информация : Audio Coding 3
Расширение режима : CM (complete main)
Параметр Endianness формата : Big
Идентификатор кодека : A_AC3
Продолжительность : 1 ч. 36 м.
Вид битрейта : Постоянный
Битрейт : 128 Кбит/сек
Каналы : 1 канал
Расположение каналов : Front: C
Частота : 48,0 КГц
Битовая глубина : 16 бит
Метод сжатия : С потерями
Размер потока : 88,5 Мбайт (0%)
Заголовок : Commentary with producer David Baughn AC3 1.0 128 kbps
Язык : English
Default : Нет
Forced : Нет
Аудио #4
Идентификатор : 5
Формат : AC-3
Формат/Информация : Audio Coding 3
Расширение режима : CM (complete main)
Параметр Endianness формата : Big
Идентификатор кодека : A_AC3
Продолжительность : 1 ч. 36 м.
Вид битрейта : Постоянный
Битрейт : 128 Кбит/сек
Каналы : 1 канал
Расположение каналов : Front: C
Частота : 48,0 КГц
Битовая глубина : 16 бит
Метод сжатия : С потерями
Размер потока : 88,5 Мбайт (0%)
Заголовок : Commentary with The Hysteria Continues AC3 1.0 128 kbps
Язык : English
Default : Нет
Forced : Нет
Меню
00:00:00.000 : en:00:00:00.000
00:16:00.543 : en:00:16:00.543
00:33:16.661 : en:00:33:16.661
00:50:41.205 : en:00:50:41.205
01:03:07.534 : en:01:03:07.534
01:20:55.017 : en:01:20:55.017

[Цитировать]



Показать сообщения:    

Текущее время: 24-Июн 09:56

Часовой пояс: UTC + 6


Вы не можете начинать темы
Вы не можете отвечать на сообщения
Вы не можете редактировать свои сообщения
Вы не можете удалять свои сообщения
Вы не можете голосовать в опросах
Вы не можете прикреплять файлы к сообщениям
Вы не можете скачивать файлы

!ВНИМАНИЕ!
Сайт не предоставляет электронные версии произведений, а занимается лишь коллекционированием и каталогизацией ссылок, присылаемых и публикуемых на форуме нашими читателями. Если вы являетесь правообладателем какого-либо представленного материала и не желаете, чтобы ссылка на него находилась в нашем каталоге, свяжитесь с нами, и мы незамедлительно удалим ее. Файлы для обмена на трекере предоставлены пользователями сайта, и администрация не несет ответственности за их содержание. Просьба не заливать файлы, защищенные авторскими правами, а также файлы нелегального содержания!