***Уважаемые пользователи и гости !!! Сайт переехал на новый домен Torrents-club.info. Просьба изменить ваши закладки! ***
 
[ Сегодня идет свободное скачивание без начисления Download ]


Статистика раздачи
Нет
 
   
 
 
 
Modern Talking / Milestones (Compilation)

Жанр: Pop
Носитель: CD
Страна-производитель диска: EU
Год издания: 2013
Издатель (лейбл): Sony Music
Номер по каталогу: 88883770202
Страна: Германия
Аудиокодек: FLAC (*.flac)
Тип рипа: image+.cue
Битрейт аудио: lossless
Продолжительность: 62:50
Источник (релизер): fan24
Наличие сканов в содержимом раздачи: да
Треклист:
01. You're My Heart, You're My Soul (3:22)
02. Cheri Cheri Lady (3:50)
03. You Can Win If You Want (3:47)
04. Brother Louie (3:43)
05. Geronimo's Cadillac (3:19)
06. Atlantis Is Calling (S.O.S. For Love) (3:48)
07. In 100 Years (3:59)
08. Jet Airliner (4:22)
09. Sexy Sexy Lover (3:35)
10. You Are Not Alone (3:25)
11. China In Her Eyes (3:12)
12. Last Exit To Brooklyn (3:18)
13. Win The Race (3:37)
14. Juliet (3:39)
15. Ready For The Victory (3:33)
16. TV Makes The Superstar (3:47)
17. Space Mix '98 ( Feat. Eric Singleton) (4:34)

Лог создания рипа

Exact Audio Copy V1.0 beta 3 from 29. August 2011
Отчёт EAC об извлечении, выполненном 7. марта 2014, 18:41
Modern Talking / Milestones
Дисковод: HL-DT-STDVDRAM GH20NS10   Adapter: 0  ID: 1
Режим чтения                 : Достоверность
Использование точного потока : Да
Отключение кэша аудио        : Да
Использование указателей C2  : Нет
Коррекция смещения при чтении                     : 667
Способность читать области Lead-in и Lead-out     : Нет
Заполнение пропущенных сэмплов тишиной            : Да
Удаление блоков с тишиной в начале и конце        : Нет
При вычислениях CRC использовались нулевые сэмплы : Да
Интерфейс                                         : Встроенный Win32-интерфейс для Win NT/2000
Выходной формат : Внутренние WAV-операции
Формат сэмплов  : 44.100 Гц; 16 бит; стерео
TOC извлечённого CD
     Трек |   Старт  | Длительность | Начальный сектор | Конечный сектор
    ---------------------------------------------------------------------
       1  |  0:00.00 |    3:21.72   |           0      |      15146
       2  |  3:21.72 |    3:50.05   |       15147      |      32401
       3  |  7:12.02 |    3:47.30   |       32402      |      49456
       4  | 10:59.32 |    3:42.74   |       49457      |      66180
       5  | 14:42.31 |    3:18.38   |       66181      |      81068
       6  | 18:00.69 |    3:48.06   |       81069      |      98174
       7  | 21:49.00 |    3:58.66   |       98175      |     116090
       8  | 25:47.66 |    4:21.46   |      116091      |     135711
       9  | 30:09.37 |    3:34.66   |      135712      |     151827
      10  | 33:44.28 |    3:24.67   |      151828      |     167194
      11  | 37:09.20 |    3:11.57   |      167195      |     181576
      12  | 40:21.02 |    3:18.14   |      181577      |     196440
      13  | 43:39.16 |    3:37.12   |      196441      |     212727
      14  | 47:16.28 |    3:39.28   |      212728      |     229180
      15  | 50:55.56 |    3:33.33   |      229181      |     245188
      16  | 54:29.14 |    3:47.06   |      245189      |     262219
      17  | 58:16.20 |    4:34.00   |      262220      |     282769
Характеристики диапазона извлечения и сообщения об ошибках
Выбранный диапазон
     Имя файла C:\rwa12\Modern Talking - Milestones.wav
     Пиковый уровень 69.8 %
     Скорость извлечения 7.8 X
     Качество диапазона 100.0 %
     CRC теста 5E6F10C5
     CRC копии 5E6F10C5
     Копирование... OK
Ошибок не произошло
AccurateRip: сводка
Трек  1  отсутствует в базе данных
Трек  2  отсутствует в базе данных
Трек  3  отсутствует в базе данных
Трек  4  отсутствует в базе данных
Трек  5  отсутствует в базе данных
Трек  6  отсутствует в базе данных
Трек  7  отсутствует в базе данных
Трек  8  отсутствует в базе данных
Трек  9  отсутствует в базе данных
Трек 10  отсутствует в базе данных
Трек 11  отсутствует в базе данных
Трек 12  отсутствует в базе данных
Трек 13  отсутствует в базе данных
Трек 14  отсутствует в базе данных
Трек 15  отсутствует в базе данных
Трек 16  отсутствует в базе данных
Трек 17  отсутствует в базе данных
Ни одного трека нет в базе AccurateRip
Конец отчёта
---- CUETools DB Plugin V2.1.5
[CTDB TOCID: MKBKKrC7iltXIUZi2NVFhmv9l4U-] disk not present in database
Submit result: MKBKKrC7iltXIUZi2NVFhmv9l4U- has been uploaded
==== Контрольная сумма отчёта 4AE330F5970AD888C0B394118FD3EA1112A212B3EC48AA31C2DE96460C9F0583 ====

Содержание индексной карты (.CUE)

REM GENRE Synthpop
REM DATE 2013
REM DISCID D30EBA11
REM COMMENT "ExactAudioCopy v1.0b3"
PERFORMER "Modern Talking"
TITLE "Milestones"
FILE "Modern Talking - Milestones.flac" WAVE
  TRACK 01 AUDIO
    TITLE "You're My Heart, You're My Soul"
    PERFORMER "Modern Talking"
    FLAGS DCP
    INDEX 01 00:00:00
  TRACK 02 AUDIO
    TITLE "Cheri Cheri Lady"
    PERFORMER "Modern Talking"
    FLAGS DCP
    INDEX 00 03:19:72
    INDEX 01 03:21:72
  TRACK 03 AUDIO
    TITLE "You Can Win If You Want"
    PERFORMER "Modern Talking"
    FLAGS DCP
    INDEX 00 07:10:02
    INDEX 01 07:12:02
  TRACK 04 AUDIO
    TITLE "Brother Louie"
    PERFORMER "Modern Talking"
    FLAGS DCP
    INDEX 00 10:57:32
    INDEX 01 10:59:32
  TRACK 05 AUDIO
    TITLE "Geronimo's Cadillac"
    PERFORMER "Modern Talking"
    FLAGS DCP
    INDEX 00 14:40:31
    INDEX 01 14:42:31
  TRACK 06 AUDIO
    TITLE "Atlantis Is Calling (S.O.S. For Love)"
    PERFORMER "Modern Talking"
    FLAGS DCP
    INDEX 00 17:58:69
    INDEX 01 18:00:69
  TRACK 07 AUDIO
    TITLE "In 100 Years"
    PERFORMER "Modern Talking"
    FLAGS DCP
    INDEX 00 21:47:00
    INDEX 01 21:49:00
  TRACK 08 AUDIO
    TITLE "Jet Airliner"
    PERFORMER "Modern Talking"
    FLAGS DCP
    INDEX 00 25:45:66
    INDEX 01 25:47:66
  TRACK 09 AUDIO
    TITLE "Sexy Sexy Lover"
    PERFORMER "Modern Talking"
    FLAGS DCP
    INDEX 00 30:07:37
    INDEX 01 30:09:37
  TRACK 10 AUDIO
    TITLE "You Are Not Alone"
    PERFORMER "Modern Talking"
    FLAGS DCP
    INDEX 00 33:42:28
    INDEX 01 33:44:28
  TRACK 11 AUDIO
    TITLE "China In Her Eyes"
    PERFORMER "Modern Talking"
    FLAGS DCP
    INDEX 00 37:07:20
    INDEX 01 37:09:20
  TRACK 12 AUDIO
    TITLE "Last Exit To Brooklyn"
    PERFORMER "Modern Talking"
    FLAGS DCP
    INDEX 00 40:19:02
    INDEX 01 40:21:02
  TRACK 13 AUDIO
    TITLE "Win The Race"
    PERFORMER "Modern Talking"
    FLAGS DCP
    INDEX 00 43:37:16
    INDEX 01 43:39:16
  TRACK 14 AUDIO
    TITLE "Juliet"
    PERFORMER "Modern Talking"
    FLAGS DCP
    INDEX 00 47:14:28
    INDEX 01 47:16:28
  TRACK 15 AUDIO
    TITLE "Ready For The Victory"
    PERFORMER "Modern Talking"
    FLAGS DCP
    INDEX 00 50:53:56
    INDEX 01 50:55:56
  TRACK 16 AUDIO
    TITLE "TV Makes The Superstar"
    PERFORMER "Modern Talking"
    FLAGS DCP
    INDEX 00 54:27:14
    INDEX 01 54:29:14
  TRACK 17 AUDIO
    TITLE "Space Mix '98 ( Feat. Eric Singleton)"
    PERFORMER "Modern Talking"
    FLAGS DCP
    INDEX 00 58:14:20
    INDEX 01 58:16:20

Лог проверки качества

AUDIOCHECKER v2.0 beta (build 457) - by Dester - opdester@freemail.hu~~~~~~~~~~~~~~~~~~~~~~~~~~~~~~~~~~-=== 团 信睦室刃由遗 菀我 岳伤! ===-
象螯: ...\Modern Talking - Milestones 2013
1 -=- Modern Talking - Milestones.flac -=- CDDA (100%)
203930004

Скриншот спектра частот

[Цитировать]



Показать сообщения:    

Текущее время: 12-Май 01:05

Часовой пояс: UTC + 6


Вы не можете начинать темы
Вы не можете отвечать на сообщения
Вы не можете редактировать свои сообщения
Вы не можете удалять свои сообщения
Вы не можете голосовать в опросах
Вы не можете прикреплять файлы к сообщениям
Вы не можете скачивать файлы

!ВНИМАНИЕ!
Сайт не предоставляет электронные версии произведений, а занимается лишь коллекционированием и каталогизацией ссылок, присылаемых и публикуемых на форуме нашими читателями. Если вы являетесь правообладателем какого-либо представленного материала и не желаете, чтобы ссылка на него находилась в нашем каталоге, свяжитесь с нами, и мы незамедлительно удалим ее. Файлы для обмена на трекере предоставлены пользователями сайта, и администрация не несет ответственности за их содержание. Просьба не заливать файлы, защищенные авторскими правами, а также файлы нелегального содержания!