***Уважаемые пользователи и гости !!! Сайт переехал на новый домен Torrents-club.info. Просьба изменить ваши закладки! ***
 
[ Сегодня идет свободное скачивание без начисления Download ]


Статистика раздачи
Нет
 
   
 
 
 
 
Петрович (2017) SATRip Страна: Россия
Год выпуска: 2017
Жанр: Боевик, драма, криминал
Перевод: Не требуется (русский)
Субтитры: Нет
Продолжительность: 01:34:19-Режиссер: Всеволод Аравин-В ролях: Игорь Бочкин, Анна Легчилова, Юрий Беляев, Наталья Корольская, Михаил Васильев, Артур Сопельник, Анатолий Горин, Михаил Сидаш, Алексей Одинг, Татьяна Мишина (II), Андрей Мокеев-Сюжет фильма: Петрович. О таком мечтают, наверное, все женщины… Сильное, надёжное мужское плечо. Может и приголубить, и пожурить. Бывший ОМОНовец, он оставил службу и уехал со своей семьёй в деревню, купил старенький баркас, рыбачит… Любимая жена, двое взрослых сыновей и невестка. Старший помогает отцу, младший уехал за «красивой жизнью» в город и попал в переделку… Задолжал большую сумму денег. Приехал к отцу повиниться и попросить о помощи. В деревню приезжает криминальный авторитет Князев со своими братками. И Петрович понимает, что его прошлое «догнало» его через 20 лет! С этого момента начинается история объединения семьи. Только вместе, стоя горой друг за друга, и, забыв все старые разногласия, смогут они защитить свою семью, свой дом и свою любовь.- -Формат: AVI
Качество: SATRip-Видео: кодек: XviD, размер кадра: 720x400, битрейт: 2 100 Кбит/сек frame rate: 25.000 кадра/сек
Аудио:язык: Русский, кодек: MP3, число каналов: 2 канала, битрейт: 128 кб/с -

MI

General
Complete name                  : Готовые\Petrovich.2017.avi
Format                         : AVI
Format/Info                    : Audio Video Interleave
File size                      : 1.48 GiB
Duration                       : 1h 34mn
Overall bit rate               : 2 241 Kbps
Writing library                : Boilsoft AVI tool build 30012/release
Video
ID                             : 0
Format                         : MPEG-4 Visual
Format settings, BVOP          : Yes
Format settings, QPel          : No
Format settings, GMC           : No warppoints
Format settings, Matrix        : Default (H.263)
Codec ID                       : DX50
Codec ID/Hint                  : DivX 5
Duration                       : 1h 34mn
Bit rate                       : 2 100 Kbps
Width                          : 720 pixels
Height                         : 400 pixels
Display aspect ratio           : 16:9
Frame rate                     : 25.000 fps
Color space                    : YUV
Chroma subsampling             : 4:2:0
Bit depth                      : 8 bits
Scan type                      : Progressive
Compression mode               : Lossy
Bits/(Pixel*Frame)             : 0.292
Stream size                    : 1.38 GiB (94%)
Writing library                : Intel(R) MPEG-4 encoder based on Intel(R) IPP 6.1 build 137.20[6.1.137.763]
Audio
ID                             : 1
Format                         : MPEG Audio
Format version                 : Version 1
Format profile                 : Layer 3
Mode                           : Joint stereo
Mode extension                 : MS Stereo
Codec ID                       : 55
Codec ID/Hint                  : MP3
Duration                       : 1h 34mn
Bit rate mode                  : Constant
Bit rate                       : 128 Kbps
Channel(s)                     : 2 channels
Sampling rate                  : 48.0 KHz
Compression mode               : Lossy
Stream size                    : 86.4 MiB (6%)
Alignment                      : Aligned on interleaves
Interleave, duration           : 24 ms (0.60 video frame)
Interleave, preload duration   : 504 ms
Writing library                : LAME3.98.2

Скриншоты





[Цитировать]



Показать сообщения:    

Текущее время: 24-Июн 10:13

Часовой пояс: UTC + 6


Вы не можете начинать темы
Вы не можете отвечать на сообщения
Вы не можете редактировать свои сообщения
Вы не можете удалять свои сообщения
Вы не можете голосовать в опросах
Вы не можете прикреплять файлы к сообщениям
Вы не можете скачивать файлы

!ВНИМАНИЕ!
Сайт не предоставляет электронные версии произведений, а занимается лишь коллекционированием и каталогизацией ссылок, присылаемых и публикуемых на форуме нашими читателями. Если вы являетесь правообладателем какого-либо представленного материала и не желаете, чтобы ссылка на него находилась в нашем каталоге, свяжитесь с нами, и мы незамедлительно удалим ее. Файлы для обмена на трекере предоставлены пользователями сайта, и администрация не несет ответственности за их содержание. Просьба не заливать файлы, защищенные авторскими правами, а также файлы нелегального содержания!