***Уважаемые пользователи и гости !!! Сайт переехал на новый домен Torrents-club.info. Просьба изменить ваши закладки! ***
 
[ Сегодня идет свободное скачивание без начисления Download ]


Статистика раздачи
Нет
 
   
 
 
 
 
Прибытие / Arrival (2016) BDRip 1080p- Производство: США
Жанр: Фантастика, Триллер, Драма, Детектив
Режиссер: Дени Вильнёв
Актеры: Эми Адамс, Джереми Реннер, Майкл Стулбарг, Форест Уитакер, Сангита Патель, Марк О’Брайэн, Эбигейл Пнёвски, Ци Ма, Натали Тибо, Рут Чианг и др.
Описание:
Неожиданное появление неопознанных летающих объектов в разных точках планеты повергает мир в трепет. Намерения пришельцев не ясны — вооруженные силы всего мира приведены в полную боевую готовность, а лучшие умы человечества пытаются понять, как разговаривать с непрошенными гостями. Правительство обращается за помощью к лингвисту Луизе Бэнкс и физику Яну Доннели, чтобы предотвратить глобальную катастрофу и найти общий язык с пришельцами. Отныне судьба человечества находится в их руках

Возраст: 16+ (зрителям, достигшим 16 лет)
Рейтинг MPAA: PG-13 (детям до 13 лет просмотр нежелателен)
Дата мировой премьеры: 1 сентября 2016
Дата российской премьеры: 11 ноября 2016, «WDSSPR»
Релиз от: izomsk
Продолжительность: 01:56:23
Качество видео: BDRip
Перевод: Дублированный Русский, Дублированный Украинский
Язык субтитров: Русский, Украинский, Английский
Вид субтитров: Вшитые отключаемые
Реклама: отсутствует
Видео: AVC/H.264, 1920x804, ~ 9600 Kbps, 59.94 fps, High@L4.2
Aудио#1: Russian: 48 kHz, AC3, 5.1 ch, ~384.00 kbps avg |Дубляж, iTunes Russia|
Aудио#2: Ukrainian: 48 kHz, AC3, 2.0 ch, ~192.00 kbps avg |Дубляж, iTunes Russia|
Aудио#3: English: 48 kHz, AC3, 5.1 ch, ~640.00 kbps avg
Субтитры: Russian (Forced, iTunes), Russian (iTunes), Ukrainian (Forced, iTunes), Ukrainian (iTunes), English, English (SDH)

Mediainfo:

General
Unique ID : 170199332993697612791480756151703360290 (0x800B32FE4B73865EAA1B3FBAEB58D322)
Complete name : D:\Users\Aleks\Videos\Arrival 1080p 60fps\Arrival (2016) BDRip 1080p 60fps.mkv
Format : Matroska
Format version : Version 4 / Version 2
File size : 8.81 GiB
Duration : 1h 56mn
Overall bit rate : 10.8 Mbps
Encoded date : UTC 2017-02-05 16:38:59
Writing application : mkvmerge v7.7.0 ('Six Voices') 64bit built on Feb 28 2015 23:39:33
Writing library : libebml v1.3.1 + libmatroska v1.4.2
DURATION : 01:56:22.942000000
NUMBER_OF_FRAMES : 418558
NUMBER_OF_BYTES : 8374823931
_STATISTICS_WRITING_APP : mkvmerge v7.7.0 ('Six Voices') 64bit built on Feb 28 2015 23:39:33
_STATISTICS_WRITING_DATE_UTC : 2017-02-05 16:38:59
_STATISTICS_TAGS : BPS DURATION NUMBER_OF_FRAMES NUMBER_OF_BYTES
Video
ID : 1
Format : AVC
Format/Info : Advanced Video Codec
Format profile : High@L4.2
Format settings, CABAC : Yes
Format settings, ReFrames : 4 frames
Codec ID : V_MPEG4/ISO/AVC
Duration : 1h 56mn
Bit rate : 9 600 Kbps
Width : 1 920 pixels
Height : 804 pixels
Display aspect ratio : 2.40:1
Frame rate mode : Constant
Frame rate : 60.000 fps
Original frame rate : 59.940 fps
Color space : YUV
Chroma subsampling : 4:2:0
Bit depth : 8 bits
Scan type : Progressive
Bits/(Pixel*Frame) : 0.104
Stream size : 7.65 GiB (87%)
Title : Rip by izomsk
Writing library : x264 core 148 r2638 7599210
Encoding settings : cabac=1 / ref=4 / deblock=1:-3:-3 / analyse=0x3:0x133 / me=umh / subme=9 / psy=1 / psy_rd=1.00:0.00 / mixed_ref=1 / me_range=32 / chroma_me=1 / trellis=2 / 8x8dct=1 / cqm=0 / deadzone=21,11 / fast_pskip=1 / chroma_qp_offset=-2 / threads=6 / lookahead_threads=1 / sliced_threads=0 / nr=0 / decimate=1 / interlaced=0 / bluray_compat=0 / constrained_intra=0 / bframes=9 / b_pyramid=2 / b_adapt=2 / b_bias=0 / direct=1 / weightb=1 / open_gop=0 / weightp=2 / keyint=1436 / keyint_min=141 / scenecut=40 / intra_refresh=0 / rc_lookahead=40 / rc=2pass / mbtree=1 / bitrate=9600 / ratetol=1.0 / qcomp=0.60 / qpmin=0 / qpmax=69 / qpstep=4 / cplxblur=20.0 / qblur=0.5 / vbv_maxrate=14000 / vbv_bufsize=14000 / nal_hrd=none / filler=0 / ip_ratio=1.40 / aq=1:1.00
Language : English
Default : Yes
Forced : No
Audio #1
ID : 2
Format : AC-3
Format/Info : Audio Coding 3
Mode extension : CM (complete main)
Format settings, Endianness : Big
Codec ID : A_AC3
Duration : 1h 56mn
Bit rate mode : Constant
Bit rate : 384 Kbps
Channel(s) : 6 channels
Channel positions : Front: L C R, Side: L R, LFE
Sampling rate : 48.0 KHz
Bit depth : 16 bits
Compression mode : Lossy
Stream size : 320 MiB (4%)
Title : Русский Дубляж, iTunes
Language : Russian
Default : Yes
Forced : No
Audio #2
ID : 3
Format : AC-3
Format/Info : Audio Coding 3
Mode extension : CM (complete main)
Format settings, Endianness : Big
Codec ID : A_AC3
Duration : 1h 56mn
Bit rate mode : Constant
Bit rate : 192 Kbps
Channel(s) : 2 channels
Channel positions : Front: L R
Sampling rate : 48.0 KHz
Bit depth : 16 bits
Compression mode : Lossy
Stream size : 160 MiB (2%)
Title : Украинский Дубляж, iTunes
Language : Ukrainian
Default : No
Forced : No
Audio #3
ID : 4
Format : AC-3
Format/Info : Audio Coding 3
Mode extension : CM (complete main)
Format settings, Endianness : Big
Codec ID : A_AC3
Duration : 1h 56mn
Bit rate mode : Constant
Bit rate : 640 Kbps
Channel(s) : 6 channels
Channel positions : Front: L C R, Side: L R, LFE
Sampling rate : 48.0 KHz
Bit depth : 16 bits
Compression mode : Lossy
Stream size : 533 MiB (6%)
Title : English Original
Language : English
Default : No
Forced : No
Text #1
ID : 5
Format : VobSub
Muxing mode : zlib
Codec ID : S_VOBSUB
Codec ID/Info : Picture based subtitle format used on DVDs
Title : Russian Forced
Language : Russian
Default : Yes
Forced : No
Text #2
ID : 6
Format : VobSub
Muxing mode : zlib
Codec ID : S_VOBSUB
Codec ID/Info : Picture based subtitle format used on DVDs
Title : Russian Full
Language : Russian
Default : No
Forced : No
Text #3
ID : 7
Format : VobSub
Muxing mode : zlib
Codec ID : S_VOBSUB
Codec ID/Info : Picture based subtitle format used on DVDs
Title : Ukrainian Forced
Language : Ukrainian
Default : No
Forced : No
Text #4
ID : 8
Format : VobSub
Muxing mode : zlib
Codec ID : S_VOBSUB
Codec ID/Info : Picture based subtitle format used on DVDs
Title : Ukrainian Full
Language : Ukrainian
Default : No
Forced : No
Text #5
ID : 9
Format : VobSub
Muxing mode : zlib
Codec ID : S_VOBSUB
Codec ID/Info : Picture based subtitle format used on DVDs
Title : English
Language : English
Default : No
Forced : No
Text #6
ID : 10
Format : VobSub
Muxing mode : zlib
Codec ID : S_VOBSUB
Codec ID/Info : Picture based subtitle format used on DVDs
Title : English (SDH)
Language : English
Default : No
Forced : No
Скриншоты:

[Цитировать]



Показать сообщения:    

Текущее время: 13-Июн 09:46

Часовой пояс: UTC + 6


Вы не можете начинать темы
Вы не можете отвечать на сообщения
Вы не можете редактировать свои сообщения
Вы не можете удалять свои сообщения
Вы не можете голосовать в опросах
Вы не можете прикреплять файлы к сообщениям
Вы не можете скачивать файлы

!ВНИМАНИЕ!
Сайт не предоставляет электронные версии произведений, а занимается лишь коллекционированием и каталогизацией ссылок, присылаемых и публикуемых на форуме нашими читателями. Если вы являетесь правообладателем какого-либо представленного материала и не желаете, чтобы ссылка на него находилась в нашем каталоге, свяжитесь с нами, и мы незамедлительно удалим ее. Файлы для обмена на трекере предоставлены пользователями сайта, и администрация не несет ответственности за их содержание. Просьба не заливать файлы, защищенные авторскими правами, а также файлы нелегального содержания!