***Уважаемые пользователи и гости !!! Сайт переехал на новый домен Torrents-club.info. Просьба изменить ваши закладки! ***
 
[ Сегодня идет свободное скачивание без начисления Download ]


Статистика раздачи
Нет
 
   
 
 
 
 
Осиное гнездо Оригинальное название: Осиное гнездо
Год выпуска: 2017
Жанр: Мелодрама
Режиссер: Сергей Лялин
В ролях:
Мария Куликова, Евгения Симонова, Ирина Антоненко, Ксения Лукьянчикова, Лиза Арзамасова, Андрей Чернышов, Игорь Новоселов
О фильме:
В большом доме под одной крышей живет три поколения женщин. Все они одиноки, ни у одной не сложилась личная жизнь. Близкие по крови женщины не дружны, а просто вынуждены жить вместе. Отчасти потому, что им некуда идти, но главное — так хочет глава дома Кира, врач частной клиники. Непререкаемый авторитет, Кира устраивает ежедневные планерки, допрашивая и наставляя своих дочерей. Худой мир в семье Мальцевых рушится после того, как мать Киры исчезает, отписав всё имущество никому не известной женщине, а бесценную картину Ван Гога — музею искусств. Вопрос с завещанием и картиной, выручка за которую могла бы освободить от «семейных уз» каждую из Мальцевых, ссорит жительниц большого дома раз и навсегда…


Выпущено: Россия, Кинокомпания Русское
Продолжительность: 16 х ~ 00:52:00
Перевод: Не требуется
Файл
Качество: HDTVRip
Видео: XviD, ~ 1650 Кбит/с, 720x400
Аудио: AC3, 2 ch, 192 Кбит/с

MediaInfo

Общее
Полное имя : D:\моё видио\Osinoe gnezdo (2016).HDTVRip.RG.Russkie.serialy.&.Files-x\01.Osinoe gnezdo (2016).HDTVRip.RG.Russkie.serialy.&.Files-x.avi
Формат : AVI
Формат/Информация : Audio Video Interleave
Размер файла : 649 Мбайт
Продолжительность : 52 м.
Общий поток : 1730 Кбит/сек
Программа кодирования : VirtualDubMod 1.5.10.3 | www.virtualdub-fr.org || (build 2550/release)
Библиотека кодирования : VirtualDubMod build 2550/release
Видео
Идентификатор : 0
Формат : MPEG-4 Visual
Профиль формата : Advanced Simple@L5
Параметр BVOP формата : 1
Параметр QPel формата : Нет
Параметр GMC формата : Без точки перехода
Параметр матрицы формата : Выборочная
Идентификатор кодека : XVID
Идентификатор кодека/Подсказка : XviD
Продолжительность : 52 м.
Битрейт : 1528 Кбит/сек
Ширина : 720 пикселей
Высота : 400 пикселей
Соотношение сторон : 16:9
Частота кадров : 25,000 кадров/сек
Цветовое пространство : YUV
Субдискретизация насыщенности : 4:2:0
Битовая глубина : 8 бит
Тип развёртки : Прогрессивная
Метод сжатия : С потерями
Бит/(Пиксели*Кадры) : 0.212
Размер потока : 573 Мбайт (88%)
Библиотека кодирования : XviD 73
Аудио
Идентификатор : 1
Формат : AC-3
Формат/Информация : Audio Coding 3
Расширение режима : CM (complete main)
Параметр Endianness формата : Big
Идентификатор кодека : 2000
Продолжительность : 52 м.
Вид битрейта : Постоянный
Битрейт : 192 Кбит/сек
Каналы : 2 канала
Расположение каналов : Front: L R
Частота : 48,0 КГц
Битовая глубина : 16 бит
Метод сжатия : С потерями
Размер потока : 72,0 Мбайт (11%)
Выравнивание : Разделение по промежуткам
Продолжительность промежутка : 40 мс. (1,00 видеокадр)
Время предзагрузки промежутка : 500 мс.

Внимание! Раздача ведётся путём добавления новых серий!

Внимание! Раздача ведётся путём добавления новых серий; при каждом добавлении создfётся новый торрент. Чтобы начать докачку новой серии, пользователям необходимо сделать следующее: (1) остановить скачивание, (2) удалить старый торрент у себя из клиента (старые серии удалять не надо), (3) скачать новый торрент и запустить его у себя в клиенте вместо старого, при этом указать клиенту путь в старую папку куда и должно происходить скачивание новых серий.
Ваш клиент при этом должен произвести хеширование (проверку) старой папки (если не производит сам - помогите ему сделать это), и будет докачивать только те серии которых у вас ещё нет. Старые серии при этом не удаляются, а продолжают раздаваться!
Eсли вы уже удалили старые серии, то предотвратить повторную закачку старых серий можно, отжав галочку в соответсвующих местах при запуске нового торрента.
Сериал 1-16 серии, 1 сезон залит полностью.


Последний раз редактировалось: papa1951deda (2017-02-17 10:46), всего редактировалось 13 раз(а)

[Цитировать]

Перешёл на HDTVRip без рекламы.
Добавлена 2 серия.

[Цитировать]

Добавлены 3-4 серии.

[Цитировать]

Добавлены 7-8 серии.

[Цитировать]

Добавлены 9-10 серии.

[Цитировать]

Добавлены 11-12 серии.

[Цитировать]

Добавлены 13-14 серии.

[Цитировать]

Добавлены 15-16 серии.

[Цитировать]



Показать сообщения:    

Текущее время: 07-Май 14:12

Часовой пояс: UTC + 6


Вы не можете начинать темы
Вы не можете отвечать на сообщения
Вы не можете редактировать свои сообщения
Вы не можете удалять свои сообщения
Вы не можете голосовать в опросах
Вы не можете прикреплять файлы к сообщениям
Вы не можете скачивать файлы

!ВНИМАНИЕ!
Сайт не предоставляет электронные версии произведений, а занимается лишь коллекционированием и каталогизацией ссылок, присылаемых и публикуемых на форуме нашими читателями. Если вы являетесь правообладателем какого-либо представленного материала и не желаете, чтобы ссылка на него находилась в нашем каталоге, свяжитесь с нами, и мы незамедлительно удалим ее. Файлы для обмена на трекере предоставлены пользователями сайта, и администрация не несет ответственности за их содержание. Просьба не заливать файлы, защищенные авторскими правами, а также файлы нелегального содержания!