***Уважаемые пользователи и гости !!! Сайт переехал на новый домен Torrents-club.info. Просьба изменить ваши закладки! ***
 
[ Сегодня идет свободное скачивание без начисления Download ]


Статистика раздачи
Нет
 
   
 
 
 
 
Пуэрториканцы в Париже / Puerto Ricans in Paris (2016) BDRip | iTunes Страна: США
Год выпуска: 2015
Жанр: Комедия
Перевод: Профессиональный многоголосый, закадровый [iTunes]
Субтитры: Нет
Продолжительность: 01:21:40-Режиссер: Йен Эдельман-В ролях: Розарио Доусон, Луис Гусман, Рози Перес, Мириам Шор, Рави Патель, Элис Тальони, Полина Сингер, Эдгар Гарсиа, Джессика Бун, Даниэль Лунд-Сюжет фильма: Два сыщика-пуэрториканца из полиции Нью-Йорка возглавляют полицейский департамент в Париже, чтобы разыскать украденную сумочку.- -Формат: AVI
Качество: BDRip-Видео: кодек: XviD, размер кадра: 720x304, битрейт: 2102 Кбит/сек frame rate: 23.976 кадра/сек
Аудио:язык: Русский, кодек: AC-3, число каналов: 6 каналов, битрейт: 384 кб/с [P MVO] -

MI

General
Complete name                  : Puerto.Ricans.in.Paris.2015.BDRip.1.42Gb.MegaPeer.avi
Format                         : AVI
Format/Info                    : Audio Video Interleave
File size                      : 1.42 GiB
Duration                       : 1h 21mn
Overall bit rate               : 2 493 Kbps
Video
ID                             : 0
Format                         : MPEG-4 Visual
Format profile                 : Advanced Simple@L5
Format settings, BVOP          : 1
Format settings, QPel          : No
Format settings, GMC           : No warppoints
Format settings, Matrix        : Custom
Codec ID                       : XVID
Codec ID/Hint                  : XviD
Duration                       : 1h 21mn
Bit rate                       : 2 102 Kbps
Width                          : 720 pixels
Height                         : 304 pixels
Display aspect ratio           : 2.35:1
Frame rate                     : 23.976 (24000/1001) fps
Color space                    : YUV
Chroma subsampling             : 4:2:0
Bit depth                      : 8 bits
Scan type                      : Progressive
Compression mode               : Lossy
Bits/(Pixel*Frame)             : 0.401
Stream size                    : 1.20 GiB (84%)
Writing library                : XviD 73
Audio
ID                             : 1
Format                         : AC-3
Format/Info                    : Audio Coding 3
Mode extension                 : CM (complete main)
Format settings, Endianness    : Big
Codec ID                       : 2000
Duration                       : 1h 21mn
Bit rate mode                  : Constant
Bit rate                       : 384 Kbps
Channel(s)                     : 6 channels
Channel positions              : Front: L C R, Side: L R, LFE
Sampling rate                  : 48.0 KHz
Frame rate                     : 31.250 fps (1536 spf)
Compression mode               : Lossy
Stream size                    : 224 MiB (15%)
Alignment                      : Aligned on interleaves
Interleave, duration           : 64 ms (1.54 video frames)
Interleave, preload duration   : 192 ms
Title                          : iTunes
Скриншоты:

[Цитировать]



Показать сообщения:    

Текущее время: 24-Июн 10:00

Часовой пояс: UTC + 6


Вы не можете начинать темы
Вы не можете отвечать на сообщения
Вы не можете редактировать свои сообщения
Вы не можете удалять свои сообщения
Вы не можете голосовать в опросах
Вы не можете прикреплять файлы к сообщениям
Вы не можете скачивать файлы

!ВНИМАНИЕ!
Сайт не предоставляет электронные версии произведений, а занимается лишь коллекционированием и каталогизацией ссылок, присылаемых и публикуемых на форуме нашими читателями. Если вы являетесь правообладателем какого-либо представленного материала и не желаете, чтобы ссылка на него находилась в нашем каталоге, свяжитесь с нами, и мы незамедлительно удалим ее. Файлы для обмена на трекере предоставлены пользователями сайта, и администрация не несет ответственности за их содержание. Просьба не заливать файлы, защищенные авторскими правами, а также файлы нелегального содержания!