***Уважаемые пользователи и гости !!! Сайт переехал на новый домен Torrents-club.info. Просьба изменить ваши закладки! ***
 
[ Сегодня идет свободное скачивание без начисления Download ]


Статистика раздачи
Нет
 
   
 
 
 
 
Другие и Сталин Жанр: Документальный, История, Хроника
Страна: СССР
Выпущено: Центрнаучфильм
Год выпуска: 1989
Продолжительность: 01:19:30
Перевод: Оригинал
Режиссёр: Владимир Лопатин
Личная оценка: 10
Описание: Каждый день самая большая в мире страна просыпалась с его именем на устах. Каждый день его имя звучало по радио, гремело в песнях, смотрело со страниц всех газет. Это имя, как величайшую награду, присваивали заводам, колхозам, улицам и городам. Во время устроенных им политических процессов жертвы, умирая, славили его имя. И влагерях, где миллионы загнанных за колючую проволоку поворачивали вспять реки, возводили города за Полярным кругом и гибли сотнями тысяч - они свершали все это под его портретами. Его статуи в граните и бронзе высились по не-обозримой стране. В непроницаемый мрак он сумел погрузить и свою жизнь, и всю историю страны. Беспрерывно уничтожая своих соратников, он тотчас стирал всякий их след в истории. Он лично руководил постоянной и беспощадной чисткой архивов. Величайшей секретностью он окружил все, что хоть как-то касалось власти. Архивы он превратил в охраняемые крепости.
Файл
Качество: VHSRip
Формат файла: AVI
Видео кодек: XviD, размер кадра: 704x528, битрейт: 1700 kbps
Аудио кодек: MP3, частота: 44,0 КГц, битрейт: 128 kbps

MediaInfo

Общее
Полное имя : J:\Utorrent\Drugie i Stalin.1989.VHSRip.[torrents-club.org].avi
Формат : AVI
Формат/Информация : Audio Video Interleave
Размер файла : 1,02 Гбайт
Продолжительность : 1 ч. 19 м.
Общий поток : 1839 Кбит/сек
Программа кодирования : VirtualDubMod 1.5.10.3 | www.virtualdub-fr.org || (build 2550/release)
Библиотека кодирования : VirtualDubMod build 2550/release
Видео
Идентификатор : 0
Формат : MPEG-4 Visual
Профиль формата : Advanced Simple@L5
Параметр BVOP формата : Да
Параметр QPel формата : Нет
Параметр GMC формата : Без точки перехода
Параметр матрицы формата : Default (H.263)
Идентификатор кодека : XVID
Идентификатор кодека/Подсказка : XviD
Продолжительность : 1 ч. 19 м.
Битрейт : 1700 Кбит/сек
Ширина : 704 пикселя
Высота : 528 пикселей
Соотношение сторон : 4:3
Частота кадров : 25,000 кадров/сек
Цветовое пространство : YUV
Субдискретизация насыщенности : 4:2:0
Битовая глубина : 8 бит
Тип развёртки : Прогрессивная
Метод сжатия : С потерями
Бит/(Пиксели*Кадры) : 0.183
Размер потока : 968 Мбайт (93%)
Библиотека кодирования : XviD 1.2.1 (UTC 2008-12-04)
Аудио
Идентификатор : 1
Формат : MPEG Audio
Версия формата : Version 1
Профиль формата : Layer 3
Идентификатор кодека : 55
Идентификатор кодека/Подсказка : MP3
Продолжительность : 1 ч. 19 м.
Вид битрейта : Постоянный
Битрейт : 128 Кбит/сек
Каналы : 2 канала
Частота : 44,1 КГц
Метод сжатия : С потерями
Размер потока : 72,8 Мбайт
Выравнивание : Разделение по промежуткам
Продолжительность промежутка : 40 мс. (1,00 видеокадр)
Время предзагрузки промежутка : 500 мс.
Библиотека кодирования : LAME3.99r
Настройки программы : -m s -V 4 -q 2 -lowpass 17 -b 128

Скриншоты





[Цитировать]



Показать сообщения:    

Текущее время: 12-Май 01:13

Часовой пояс: UTC + 6


Вы не можете начинать темы
Вы не можете отвечать на сообщения
Вы не можете редактировать свои сообщения
Вы не можете удалять свои сообщения
Вы не можете голосовать в опросах
Вы не можете прикреплять файлы к сообщениям
Вы не можете скачивать файлы

!ВНИМАНИЕ!
Сайт не предоставляет электронные версии произведений, а занимается лишь коллекционированием и каталогизацией ссылок, присылаемых и публикуемых на форуме нашими читателями. Если вы являетесь правообладателем какого-либо представленного материала и не желаете, чтобы ссылка на него находилась в нашем каталоге, свяжитесь с нами, и мы незамедлительно удалим ее. Файлы для обмена на трекере предоставлены пользователями сайта, и администрация не несет ответственности за их содержание. Просьба не заливать файлы, защищенные авторскими правами, а также файлы нелегального содержания!