***Уважаемые пользователи и гости !!! Сайт переехал на новый домен Torrents-club.info. Просьба изменить ваши закладки! ***
 
[ Сегодня идет свободное скачивание без начисления Download ]


Статистика раздачи
Нет
 
   
 
 
 
 
Куба
Оригинальное название: Куба
Год выхода: 2017
Жанр: Боевик, детектив, криминал
Выпущено: Россия
Режиссер: Алексей Гусев (II), Андрей Щербинин, Роман Ярославцев

Алексей Макаров, Александр Лыков, Екатерина Кузнецова (IV), Юлия Такшина, Екатерина Никитина, Митя Лабуш, Елена Дубровская, Валерия Крючкова, Татьяна Чердынцева, Сергей Гарусов, Олег Метелев, Александр Гелейша, Алёша Шаблюк, Елена Мартыненко, Александр Мосолов, Юрий Елагин, Сергей Сафронов, Оксана Базилевич, Михаил Скачков, Анатолий Котенёв, Виктор Рыбчинский, Даниил Кокин.

Действие истории разворачивается в подмосковном Среднереченске, где капитан Андрей Кубанков (Алексей Макаров) по прозвищу Куба пытается начать жизнь с чистого листа. Не так давно он служил в разведке в мотострелковом полку, но его уволили за драку с командиром, который увёл у Кубы жену. Приехав в родные края, Андрей долгое время топил горе в алкоголе, пока не встретил Эрику (Екатерина Кузнецова). Но девушку, которая изменила его жизнь, внезапно похищают. Кубе приходится вспоминать навыки боевого разведчика, чтобы спасти любимую. Вместе с братом Эрики влиятельным бизнесменом Алексеем Одинцовым (Александр Лыков) Куба находит злоумышленников. После этого случая Кубу приглашают на службу в уголовный розыск местного РОВД. Он не изменяет принципам бывшего военного, при любых обстоятельствах остаётся честным, несгибаемым и справедливым. Его привлекают к расследованию запутанных и резонансных дел. Когда Куба выходит на след главного заказчика всех преступлений в Среднереченске, перед ним встанет тяжёлый выбор: оставить всё на своих местах, обеспечив безопасность себе и близким, или во что бы то ни стало наказать злоумышленника.

Формат: AVI
Личная оценка: не смотрел
Качество: HDTVRip
Видео: XviD, ~1650 Кбит/с, 720x400
Аудио: AC3, 2 ch, 192 Кбит/с
Продолжительность: 24 x ~00:45:00
Перевод: Не требуется


MediaInfo

Общее
Полное имя : D:\моё видио\Куба (2016).HDTVRip.RG.Russkie.serialy.&.Files-x\01.Куба (2016).HDTVRip.RG.Russkie.serialy.&.Files-x.avi
Формат : AVI
Формат/Информация : Audio Video Interleave
Размер файла : 549 Мбайт
Продолжительность : 43 м.
Общий поток : 1754 Кбит/сек
Программа кодирования : VirtualDubMod 1.5.10.3 | www.virtualdub-fr.org || (build 2550/release)
Библиотека кодирования : VirtualDubMod build 2550/release
Видео
Идентификатор : 0
Формат : MPEG-4 Visual
Профиль формата : Advanced Simple@L5
Параметр BVOP формата : 1
Параметр QPel формата : Нет
Параметр GMC формата : Без точки перехода
Параметр матрицы формата : Выборочная
Идентификатор кодека : XVID
Идентификатор кодека/Подсказка : XviD
Продолжительность : 43 м.
Битрейт : 1553 Кбит/сек
Ширина : 720 пикселей
Высота : 400 пикселей
Соотношение сторон : 16:9
Частота кадров : 25,000 кадров/сек
Цветовое пространство : YUV
Субдискретизация насыщенности : 4:2:0
Битовая глубина : 8 бит
Тип развёртки : Прогрессивная
Метод сжатия : С потерями
Бит/(Пиксели*Кадры) : 0.216
Размер потока : 486 Мбайт (89%)
Библиотека кодирования : XviD 73
Аудио
Идентификатор : 1
Формат : AC-3
Формат/Информация : Audio Coding 3
Расширение режима : CM (complete main)
Параметр Endianness формата : Big
Идентификатор кодека : 2000
Продолжительность : 43 м.
Вид битрейта : Постоянный
Битрейт : 192 Кбит/сек
Каналы : 2 канала
Расположение каналов : Front: L R
Частота : 48,0 КГц
Битовая глубина : 16 бит
Метод сжатия : С потерями
Размер потока : 60,1 Мбайт (11%)
Выравнивание : Разделение по промежуткам
Продолжительность промежутка : 40 мс. (1,00 видеокадр)
Время предзагрузки промежутка : 500 мс.

Внимание! Раздача ведётся путём добавления новых серий!

Внимание! Раздача ведётся путём добавления новых серий; при каждом добавлении создаётся новый торрент. Чтобы начать докачку новой серии, пользователям необходимо сделать следующее: (1) остановить скачивание, (2) удалить старый торрент у себя из клиента (старые серии удалять не надо), (3) скачать новый торрент и запустить его у себя в клиенте вместо старого, при этом указать клиенту путь в старую папку куда и должно происходить скачивание новых серий.
Ваш клиент при этом должен произвести хеширование (проверку) старой папки (если не производит сам - помогите ему сделать это), и будет докачивать только те серии которых у вас ещё нет. Старые серии при этом не удаляются, а продолжают раздаваться!
Eсли вы уже удалили старые серии, то предотвратить повторную закачку старых серий можно, отжав галочку в соответсвующих местах при запуске нового торрента.
Сериал 1-24 серии залит полностью.


Последний раз редактировалось: papa1951deda (2017-02-18 11:07), всего редактировалось 12 раз(а)

[Цитировать]

Перешёл на HDTVRip без рекламы.

[Цитировать]

[Цитировать]

Все по нулям...На раздаче никого?Или у меня "глюки"

[Цитировать]

76848Все по нулям...На раздаче никого?Или у меня "глюки"
Видать у вас

[Цитировать]

Всё то же самое, было неоднократно, НО будем качать и смотреть . Раздающему за труды Благодарствие !

[Цитировать]

79976Всё то же самое, было неоднократно, НО будем качать и смотреть . Раздающему за труды Благодарствие !
Приятного просмотра!

[Цитировать]

Добавлены 21-24 серии.

[Цитировать]

Топик был перенесен из форума Новинки отечественных сериалов в форум Отечественные сериалы
Winchester



Показать сообщения:    

Текущее время: 16-Май 08:05

Часовой пояс: UTC + 6


Вы не можете начинать темы
Вы не можете отвечать на сообщения
Вы не можете редактировать свои сообщения
Вы не можете удалять свои сообщения
Вы не можете голосовать в опросах
Вы не можете прикреплять файлы к сообщениям
Вы не можете скачивать файлы

!ВНИМАНИЕ!
Сайт не предоставляет электронные версии произведений, а занимается лишь коллекционированием и каталогизацией ссылок, присылаемых и публикуемых на форуме нашими читателями. Если вы являетесь правообладателем какого-либо представленного материала и не желаете, чтобы ссылка на него находилась в нашем каталоге, свяжитесь с нами, и мы незамедлительно удалим ее. Файлы для обмена на трекере предоставлены пользователями сайта, и администрация не несет ответственности за их содержание. Просьба не заливать файлы, защищенные авторскими правами, а также файлы нелегального содержания!