***Уважаемые пользователи и гости !!! Сайт переехал на новый домен Torrents-club.info. Просьба изменить ваши закладки! ***
 
[ Сегодня идет свободное скачивание без начисления Download ]


Статистика раздачи
Нет
 
   
 
 
 
 
Майор и магия [01-32 из 32] Информация о фильме
Название: Майор и магия
Год выхода: 2016
Жанр: детектив, комедия, мистика
Режиссер: Владимир Мельниченко
В ролях: Константин Самоуков, Мария Берсенева, Евгений Сахаров , Константин Войтенко, Олег Примогенов, Виктория Билан, Вячеслав Довженко, Владимир Николаенко, Александр Катунин, Наталья Кудрявцева , Виктор Сарайкин, Евгений Ефремов , Анна Обромёнок, Константин Корецкий, Евгений Плиско-Куприн, Владимир Ямненко, Юрий Одинокий, Андрей Журба, Алексей Смолка, Дария Барихашвили, Константин Косинский, Роман Ясиновский, Вячеслав Николенко, Любовь Тищенко , Яна Горная, Ольга Морозова, Владимир Ющенко , Наталья Кленина, Екатерина Марченко, Екатерина Котова , Елена Борозенец
О фильме:
Офицер ФСО Антон Амосов проявляет принципиальность и ставит на место обнаглевшего чиновника. Над головой майора сгущаются тучи. Его переводят из Москвы в родной город Рязанск – пока буря не уляжется. Здесь ему приходится работать обычным опером в местном РОВД. Первое задание — арестовать аферистку Елену Воробьяшкину. По дороге у подозреваемой открывается дар предвидения — она предотвращает аварию. Вскоре провидица поступает на службу в полицию и своими «озарениями» помогает Амосову раскрывать самые запутанные дела. Детективный дуэт ждут необычные расследования и личная история на фоне колоритных видов.
Страна: Россия,Украина, Компания «Интра» по заказу Пятого канала
Продолжительность: ~ 00:39:00
Язык: Русский

Файл
Качество: SATRip-AVC
Видео: MPEG-4 AVC, ~ 1400 Кбит/с, 720x400
Звук: AC3, 2 ch, 192 Кбит/с

MI

Общее
Уникальный идентификатор : 217919693696542871750726723399549797179 (0xA3F1CE6D5BEA7F17860D8AE89779433B)
Полное имя : I:Майор и магия1 серия_Майор и магия_rip by_Aleksan55.mkv
Формат : Matroska
Версия формата : Version 2
Размер файла : 452 Мбайт
Продолжительность : 39 м. 40 с.
Общий поток : 1594 Кбит/сек
Дата кодирования : UTC 2017-01-30 15:28:23
Программа кодирования : mkvmerge v7.8.0 ('River Man') 32bit built on Apr 3 2015 12:11:22
Библиотека кодирования : libebml v1.3.1 + libmatroska v1.4.2
Видео
Идентификатор : 1
Формат : AVC
Формат/Информация : Advanced Video Codec
Профиль формата : High@L4.1
Параметр CABAC формата : Да
Параметр ReFrames формата : 14 кадров
Идентификатор кодека : V_MPEG4/ISO/AVC
Продолжительность : 39 м. 40 с.
Битрейт : 1400 Кбит/сек
Ширина : 720 пикселей
Высота : 400 пикселей
Соотношение сторон : 16:9
Режим частоты кадров : Постоянный
Частота кадров : 25,000 кадров/сек
Цветовое пространство : YUV
Субдискретизация насыщенности : 4:2:0
Битовая глубина : 8 бит
Тип развёртки : Прогрессивная
Бит/(Пиксели*Кадры) : 0.194
Размер потока : 389 Мбайт (86%)
Библиотека кодирования : x264 core 148 r2638 7599210
Настройки программы : cabac=1 / ref=14 / deblock=1:-1:-1 / analyse=0x3:0x133 / me=umh / subme=9 / psy=1 / psy_rd=1.00:0.15 / mixed_ref=0 / me_range=32 / chroma_me=1 / trellis=2 / 8x8dct=1 / cqm=0 / deadzone=21,11 / fast_pskip=0 / chroma_qp_offset=-3 / threads=3 / lookahead_threads=3 / sliced_threads=0 / nr=0 / decimate=0 / interlaced=0 / bluray_compat=0 / constrained_intra=0 / bframes=14 / b_pyramid=2 / b_adapt=1 / b_bias=0 / direct=3 / weightb=1 / open_gop=0 / weightp=2 / keyint=250 / keyint_min=25 / scenecut=40 / intra_refresh=0 / rc_lookahead=40 / rc=2pass / mbtree=1 / bitrate=1400 / ratetol=1.0 / qcomp=0.80 / qpmin=0 / qpmax=40 / qpstep=4 / cplxblur=20.0 / qblur=0.5 / ip_ratio=1.10 / aq=1:1.20
Default : Да
Forced : Нет
Цветовой диапазон : Limited
Основные цвета : BT.601 PAL
Характеристики трансфера : BT.470 System B, BT.470 System G
Коэффициенты матрицы : BT.601
Аудио
Идентификатор : 2
Формат : AC-3
Формат/Информация : Audio Coding 3
Расширение режима : CM (complete main)
Параметр Endianness формата : Big
Идентификатор кодека : A_AC3
Продолжительность : 39 м. 40 с.
Вид битрейта : Постоянный
Битрейт : 192 Кбит/сек
Каналы : 2 канала
Расположение каналов : Front: L R
Частота : 48,0 КГц
Частота кадров : 31,250 кадров/сек (1536 spf)
Битовая глубина : 16 бит
Метод сжатия : С потерями
Размер потока : 54,5 Мбайт (12%)
Default : Да
Forced : Нет

Скриншоты



Последний раз редактировалось: Viktor1952 (2017-02-21 03:57), всего редактировалось 10 раз(а)

[Цитировать]



Показать сообщения:    

Текущее время: 12-Май 01:49

Часовой пояс: UTC + 6


Вы не можете начинать темы
Вы не можете отвечать на сообщения
Вы не можете редактировать свои сообщения
Вы не можете удалять свои сообщения
Вы не можете голосовать в опросах
Вы не можете прикреплять файлы к сообщениям
Вы не можете скачивать файлы

!ВНИМАНИЕ!
Сайт не предоставляет электронные версии произведений, а занимается лишь коллекционированием и каталогизацией ссылок, присылаемых и публикуемых на форуме нашими читателями. Если вы являетесь правообладателем какого-либо представленного материала и не желаете, чтобы ссылка на него находилась в нашем каталоге, свяжитесь с нами, и мы незамедлительно удалим ее. Файлы для обмена на трекере предоставлены пользователями сайта, и администрация не несет ответственности за их содержание. Просьба не заливать файлы, защищенные авторскими правами, а также файлы нелегального содержания!