***Уважаемые пользователи и гости !!! Сайт переехал на новый домен Torrents-club.info. Просьба изменить ваши закладки! ***
 
[ Сегодня идет свободное скачивание без начисления Download ]


Статистика раздачи
Нет
 
   
 
 
 
 
Куба [01-24 из 24] Информация о фильме
Название: Куба
Год выхода: 2016
Жанр: детектив, криминал
Режиссер: Андрей Щербинин, Роман Ярославцев, Алексей Гусев
В ролях: Алексей Макаров, Александр Лыков, Екатерина Кузнецова , Юлия Такшина, Екатерина Никитина, Митя Лабуш, Елена Дубровская, Валерия Крючкова, Татьяна Чердынцева, Сергей Гарусов, Олег Метелев, Александр Гелейша, Алёша Шаблюк, Елена Мартыненко, Александр Мосолов, Юрий Елагин, Сергей Сафронов, Оксана Базилевич, Михаил Скачков, Анатолий Котенёв, Виктор Рыбчинский, Даниил Кокин
О фильме:
Действие истории разворачивается в подмосковном Среднереченске, где капитан Андрей Кубанков по прозвищу Куба пытается начать жизнь с чистого листа. Не так давно он служил в разведке в мотострелковом полку, но его уволили за драку с командиром, который увел у Кубы жену. Приехав в родные края, Андрей долгое время топил горе в алкоголе, пока не встретил Эрику . Но девушку, которая изменила его жизнь, похитили.
Страна: Россия, «Продюсерский центр Сергея Жигунова»
Продолжительность: ~ 00:43:00
Язык: Русский

Файл
Качество: SATRip-AVC
Видео: MPEG-4 AVC, ~ 1700 Кбит/с, 720x400
Звук: AC3, 2 ch, 192 Кбит/с

MI

Общее
Уникальный идентификатор : 240287496597864625139807309253905665542 (0xB4C5B041458F36CCAAFE6C3806DACE06)
Полное имя : I:Куба1 серия_Куба_rip by_Aleksan55.mkv
Формат : Matroska
Версия формата : Version 2
Размер файла : 594 Мбайт
Продолжительность : 43 м. 49 с.
Общий поток : 1894 Кбит/сек
Дата кодирования : UTC 2017-02-06 13:07:29
Программа кодирования : mkvmerge v7.8.0 ('River Man') 32bit built on Apr 3 2015 12:11:22
Библиотека кодирования : libebml v1.3.1 + libmatroska v1.4.2
Видео
Идентификатор : 1
Формат : AVC
Формат/Информация : Advanced Video Codec
Профиль формата : High@L4.1
Параметр CABAC формата : Да
Параметр ReFrames формата : 14 кадров
Идентификатор кодека : V_MPEG4/ISO/AVC
Продолжительность : 43 м. 49 с.
Битрейт : 1700 Кбит/сек
Ширина : 720 пикселей
Высота : 400 пикселей
Соотношение сторон : 16:9
Режим частоты кадров : Постоянный
Частота кадров : 25,000 кадров/сек
Цветовое пространство : YUV
Субдискретизация насыщенности : 4:2:0
Битовая глубина : 8 бит
Тип развёртки : Прогрессивная
Бит/(Пиксели*Кадры) : 0.236
Размер потока : 522 Мбайт (88%)
Библиотека кодирования : x264 core 148 r2638 7599210
Настройки программы : cabac=1 / ref=14 / deblock=1:-1:-1 / analyse=0x3:0x133 / me=umh / subme=9 / psy=1 / psy_rd=1.00:0.15 / mixed_ref=0 / me_range=32 / chroma_me=1 / trellis=2 / 8x8dct=1 / cqm=0 / deadzone=21,11 / fast_pskip=0 / chroma_qp_offset=-3 / threads=3 / lookahead_threads=3 / sliced_threads=0 / nr=0 / decimate=0 / interlaced=0 / bluray_compat=0 / constrained_intra=0 / bframes=14 / b_pyramid=2 / b_adapt=1 / b_bias=0 / direct=3 / weightb=1 / open_gop=0 / weightp=2 / keyint=250 / keyint_min=25 / scenecut=40 / intra_refresh=0 / rc_lookahead=40 / rc=2pass / mbtree=1 / bitrate=1700 / ratetol=1.0 / qcomp=0.80 / qpmin=0 / qpmax=40 / qpstep=4 / cplxblur=20.0 / qblur=0.5 / ip_ratio=1.10 / aq=1:1.20
Default : Да
Forced : Нет
Цветовой диапазон : Limited
Основные цвета : BT.601 PAL
Характеристики трансфера : BT.470 System B, BT.470 System G
Коэффициенты матрицы : BT.601
Аудио
Идентификатор : 2
Формат : AC-3
Формат/Информация : Audio Coding 3
Расширение режима : CM (complete main)
Параметр Endianness формата : Big
Идентификатор кодека : A_AC3
Продолжительность : 43 м. 49 с.
Вид битрейта : Постоянный
Битрейт : 192 Кбит/сек
Каналы : 2 канала
Расположение каналов : Front: L R
Частота : 48,0 КГц
Частота кадров : 31,250 кадров/сек (1536 spf)
Битовая глубина : 16 бит
Метод сжатия : С потерями
Размер потока : 60,2 Мбайт (10%)
Default : Да
Forced : Нет

Скриншоты

Внимание! Раздача ведётся путём добавления новых серий

Внимание! Раздача ведётся путём добавления новых серий; при каждом добавлении создаётся новый торрент.
Чтобы начать докачку новой серии, пользователям необходимо сделать следующее:
1. Остановить скачивание;
2. Удалить старый торрент у себя из клиента (старые серии удалять не надо);
3. Скачать новый торрент и запустить его у себя в клиенте вместо старого, при этом указать клиенту путь в старую папку куда и должно происходить скачивание новых серий. Ваш клиент при этом должен произвести хеширование (проверку) старой папки и будет докачивать только те серии, которых у вас ещё нет. Старые серии при этом не удаляются, а продолжают раздаваться! Eсли вы уже удалили старые серии, то предотвратить повторную закачку старых серий можно, отжав галочку в соответствующих местах при запуске нового торрента.


Последний раз редактировалось: Viktor1952 (2017-02-08 04:09), всего редактировалось 1 раз

[Цитировать]



Показать сообщения:    

Текущее время: 07-Май 13:42

Часовой пояс: UTC + 6


Вы не можете начинать темы
Вы не можете отвечать на сообщения
Вы не можете редактировать свои сообщения
Вы не можете удалять свои сообщения
Вы не можете голосовать в опросах
Вы не можете прикреплять файлы к сообщениям
Вы не можете скачивать файлы

!ВНИМАНИЕ!
Сайт не предоставляет электронные версии произведений, а занимается лишь коллекционированием и каталогизацией ссылок, присылаемых и публикуемых на форуме нашими читателями. Если вы являетесь правообладателем какого-либо представленного материала и не желаете, чтобы ссылка на него находилась в нашем каталоге, свяжитесь с нами, и мы незамедлительно удалим ее. Файлы для обмена на трекере предоставлены пользователями сайта, и администрация не несет ответственности за их содержание. Просьба не заливать файлы, защищенные авторскими правами, а также файлы нелегального содержания!