***Уважаемые пользователи и гости !!! Сайт переехал на новый домен Torrents-club.info. Просьба изменить ваши закладки! ***
 
[ Сегодня идет свободное скачивание без начисления Download ]


Статистика раздачи
Нет
 
   
 
 
 
 
Крест. Часть вторая: Двойной обман / Cross Wars (2017) WEB-DLRip-AVC Год выпуска: 2017
Страна: США
Производство: El Ride Productions, Four Horsemen Films, Morningstar Films
Жанр: боевик
Режиссёр: Патрик Дархэм
В ролях: Брайан Остин Грин, Дэнни Трехо, Винни Джонс, Патрик Дархэм, Том Сайзмор, Лори Хёринг, Тим Эбелл, Андре Гордон, Нед Либл, Amy Jane
Перевод: Профессиональный (многоголосый, закадровый) iTunes
Субтитры: нет
Описание: Возвращение непримиримого борца со злом Каллана, обладателя древнего магического амулета Крест, и его брутальной команды. Теперь их жизням угрожает новый враг Муэрте и их старый знакомый, проклятый викинг Гуннар. Чтобы спастись самим и спасти всё человечество, герои вынуждены объединиться с командой воинственных женщин, возглавляемых красавицей Райли, у которой есть своей древний амулет.
СЭМПЛ
Качество: WEB-DLRip-AVC
Продолжительность: 01:38:14
Формат: MKV
Видео кодек: AVC
Аудио кодек: АС3
Видео: 720x388 (1.85:1), 23.976 fps, MPEG-4 AVC ~1740 kb/s, 0.260 bit/pixel
Аудио / RUS: АС3, 48 kHz, 6 ch, ~384.00 kbps avg

MI

\Cross Wars.2017.WEB-DLRip(AVC).ExKinoRay.mkv
Формат : Matroska
Версия формата : Version 2
Размер файла : 1,46 Гбайт
Продолжительность : 1 ч. 38 м.
Общий поток : 2126 Кбит/сек
Название фильма : Cross Wars.2017 #TorpedoUK#
Дата кодирования : UTC 2017-02-06 19:09:21
Программа кодирования : mkvmerge v7.8.0 ('River Man') 32bit built on Apr 3 2015 12:11:22
Библиотека кодирования : libebml v1.3.1 + libmatroska v1.4.2
Видео
Идентификатор : 1
Формат : AVC
Формат/Информация : Advanced Video Codec
Профиль формата : High@L4.1
Параметр CABAC формата : Да
Параметр ReFrames формата : 10 кадров
Идентификатор кодека : V_MPEG4/ISO/AVC
Продолжительность : 1 ч. 38 м.
Битрейт : 1740 Кбит/сек
Ширина : 720 пикселей
Высота : 388 пикселей
Соотношение сторон : 1,85:1
Режим частоты кадров : Постоянный
Частота кадров : 23,976 (24000/1001) кадра/сек
Цветовое пространство : YUV
Субдискретизация насыщенности : 4:2:0
Битовая глубина : 8 бит
Тип развёртки : Прогрессивная
Бит/(Пиксели*Кадры) : 0.260
Размер потока : 1,17 Гбайт (80%)
Библиотека кодирования : x264 core 146 r2538 121396c
Настройки программы : cabac=1 / ref=10 / deblock=1:-3:-3 / analyse=0x3:0x133 / me=umh / subme=10 / psy=1 / psy_rd=0.00:0.03 / mixed_ref=1 / me_range=48 / chroma_me=1 / trellis=2 / 8x8dct=1 / cqm=0 / deadzone=21,11 / fast_pskip=0 / chroma_qp_offset=-1 / threads=6 / lookahead_threads=1 / sliced_threads=0 / nr=0 / decimate=0 / interlaced=0 / bluray_compat=0 / constrained_intra=0 / bframes=10 / b_pyramid=2 / b_adapt=2 / b_bias=0 / direct=3 / weightb=1 / open_gop=0 / weightp=2 / keyint=250 / keyint_min=23 / scenecut=40 / intra_refresh=0 / rc_lookahead=40 / rc=2pass / mbtree=0 / bitrate=1740 / ratetol=1.0 / qcomp=0.60 / qpmin=0 / qpmax=69 / qpstep=4 / cplxblur=20.0 / qblur=0.5 / vbv_maxrate=50000 / vbv_bufsize=62500 / nal_hrd=none / filler=0 / ip_ratio=1.40 / pb_ratio=1.30 / aq=1:1.00
Default : Да
Forced : Нет
Аудио
Идентификатор : 2
Формат : AC-3
Формат/Информация : Audio Coding 3
Расширение режима : CM (complete main)
Параметр Endianness формата : Big
Идентификатор кодека : A_AC3
Продолжительность : 1 ч. 38 м.
Вид битрейта : Постоянный
Битрейт : 384 Кбит/сек
Каналы : 6 каналов
Расположение каналов : Front: L C R, Side: L R, LFE
Частота : 48,0 КГц
Частота кадров : 31,250 кадров/сек (1536 spf)
Битовая глубина : 16 бит
Метод сжатия : С потерями
Размер потока : 270 Мбайт (18%)
Язык : Russian
Default : Да
Forced : Да
Меню
00:00:00.000 : en:1
00:05:19.527 : en:2
00:13:16.712 : en:3
00:19:27.374 : en:4
00:27:17.552 : en:5
00:36:46.494 : en:6
00:42:51.774 : en:7
00:48:12.886 : en:8
00:55:08.509 : en:9
01:00:25.449 : en:10
01:06:05.287 : en:11
01:11:03.667 : en:12
01:14:50.310 : en:13
01:19:49.816 : en:14
01:25:01.169 : en:15
01:32:18.022 : en:16

[Цитировать]



Показать сообщения:    

Текущее время: 12-Май 01:27

Часовой пояс: UTC + 6


Вы не можете начинать темы
Вы не можете отвечать на сообщения
Вы не можете редактировать свои сообщения
Вы не можете удалять свои сообщения
Вы не можете голосовать в опросах
Вы не можете прикреплять файлы к сообщениям
Вы не можете скачивать файлы

!ВНИМАНИЕ!
Сайт не предоставляет электронные версии произведений, а занимается лишь коллекционированием и каталогизацией ссылок, присылаемых и публикуемых на форуме нашими читателями. Если вы являетесь правообладателем какого-либо представленного материала и не желаете, чтобы ссылка на него находилась в нашем каталоге, свяжитесь с нами, и мы незамедлительно удалим ее. Файлы для обмена на трекере предоставлены пользователями сайта, и администрация не несет ответственности за их содержание. Просьба не заливать файлы, защищенные авторскими правами, а также файлы нелегального содержания!