***Уважаемые пользователи и гости !!! Сайт переехал на новый домен Torrents-club.info. Просьба изменить ваши закладки! ***
 
[ Сегодня идет свободное скачивание без начисления Download ]


Статистика раздачи
Нет
 
   
 
 
 
 
Демон дерева / Arbor Demon (2016) WEB-DLRip Страна: США
Год выпуска: 2016
Жанр: Ужасы, триллер, драма
Перевод: Любительский (многоголосый, закадровый) | [@MUZOBOZ@]
Субтитры: Нет
Продолжительность: 01:33:54-Режиссер: Патрик Ри-В ролях: Фиона Дуриф, Роб Баутон, Джейк Бьюзи, Мишель Миллс, Кевин Дж. Райан, Брюс Уильямсон-Сюжет фильма: Молодая семейная пара отправляется в поход по лесам, чтобы отдохнуть от мобильных телефонов и отметить годовщину свадьбы. Там они встречают группу охотников, а группа охотников встречает нечто, что убивает даже вооружённых мужчин. Оказывается, за этими лесами закрепилась дурная слава, и не все возвращаются из походов.- -Формат: AVI
Качество: WEB-DLRip-Видео: кодек: XviD, размер кадра: 720x384, битрейт: 1 691 Кбит/сек frame rate: 29.970 кадра/сек
Аудио:язык: Русский, кодек: AC-3, число каналов: 2 канала, битрейт: 384 кб/с [L MVO] -Релиз с рекламой!

MI

General
Complete name                  : Arbor.Demon.2016.L.WEB-DLRip.14OOMB.avi
Format                         : AVI
Format/Info                    : Audio Video Interleave
File size                      : 1.37 GiB
Duration                       : 1h 33mn
Overall bit rate               : 2 084 Kbps
Writing application            : VirtualDubMod 1.5.10.2 (build 2540/release)
Writing library                : VirtualDubMod build 2540/release
Video
ID                             : 0
Format                         : MPEG-4 Visual
Format profile                 : Advanced Simple@L5
Format settings, BVOP          : 2
Format settings, QPel          : No
Format settings, GMC           : No warppoints
Format settings, Matrix        : Default (MPEG)
Codec ID                       : XVID
Codec ID/Hint                  : XviD
Duration                       : 1h 33mn
Bit rate                       : 1 691 Kbps
Width                          : 720 pixels
Height                         : 384 pixels
Display aspect ratio           : 1.85:1
Frame rate                     : 23.976 (24000/1001) fps
Color space                    : YUV
Chroma subsampling             : 4:2:0
Bit depth                      : 8 bits
Scan type                      : Progressive
Compression mode               : Lossy
Bits/(Pixel*Frame)             : 0.255
Stream size                    : 1.11 GiB (81%)
Writing library                : XviD 1.2.1 (UTC 2008-12-04)
Audio
ID                             : 1
Format                         : AC-3
Format/Info                    : Audio Coding 3
Mode extension                 : CM (complete main)
Format settings, Endianness    : Big
Codec ID                       : 2000
Duration                       : 1h 33mn
Bit rate mode                  : Constant
Bit rate                       : 384 Kbps
Channel(s)                     : 2 channels
Channel positions              : Front: L R
Sampling rate                  : 48.0 KHz
Frame rate                     : 31.250 fps (1536 spf)
Compression mode               : Lossy
Stream size                    : 258 MiB (18%)
Alignment                      : Split accross interleaves
Interleave, duration           : 42 ms (1.00 video frame)
Interleave, preload duration   : 500 ms
Скриншоты:

[Цитировать]



Показать сообщения:    

Текущее время: 06-Май 13:10

Часовой пояс: UTC + 6


Вы не можете начинать темы
Вы не можете отвечать на сообщения
Вы не можете редактировать свои сообщения
Вы не можете удалять свои сообщения
Вы не можете голосовать в опросах
Вы не можете прикреплять файлы к сообщениям
Вы не можете скачивать файлы

!ВНИМАНИЕ!
Сайт не предоставляет электронные версии произведений, а занимается лишь коллекционированием и каталогизацией ссылок, присылаемых и публикуемых на форуме нашими читателями. Если вы являетесь правообладателем какого-либо представленного материала и не желаете, чтобы ссылка на него находилась в нашем каталоге, свяжитесь с нами, и мы незамедлительно удалим ее. Файлы для обмена на трекере предоставлены пользователями сайта, и администрация не несет ответственности за их содержание. Просьба не заливать файлы, защищенные авторскими правами, а также файлы нелегального содержания!