***Уважаемые пользователи и гости !!! Сайт переехал на новый домен Torrents-club.info. Просьба изменить ваши закладки! ***
 
[ Сегодня идет свободное скачивание без начисления Download ]


Статистика раздачи
Нет
 
   
 
 
 
 
Прощание. Евгений Примаков Жанр: Документальный, Биографический
Страна: Россия
Год выпуска: 2017
Продолжительность: 00:40:49
Перевод: Оригинал
Личная оценка: 10
Описание: Он был премьер-министром страны всего 9 месяцев, не стал Президентом страны, но Евгения Максимовича Примакова хоронили по высшему государственному разряду. Похороны транслировались в прямом эфире, неотлучно 2 с лишним часа рядом с телом усопшего был Владимир Владимирович Путин. Как Примаков оттащил страну от края пропасти после дефолта, и почему его был готов убить Борис Березовский? Зачем был нужен знаменитый "разворот" над Атлантикой? За что этого политика уважает огромное количество людей?
Файл
Качество: SATRip
Формат файла: AVI
Видео: кодек: XviD, размер кадра: 704x448, битрейт: 1800 kbps
Аудио: кодек: MP3, частота: 48,0 КГц, битрейт: 128 kbps

MediaInfo

Общее
Полное имя : J:\Utorrent\Proshhanie.Evgenij Primakov.2017.SATRip.[torrents-club.org].avi
Формат : AVI
Формат/Информация : Audio Video Interleave
Размер файла : 566 Мбайт
Продолжительность : 40 м. 49 с.
Общий поток : 1937 Кбит/сек
Программа кодирования : VirtualDubMod 1.5.10.3 | www.virtualdub-fr.org || (build 2550/release)
Библиотека кодирования : VirtualDubMod build 2550/release
Видео
Идентификатор : 0
Формат : MPEG-4 Visual
Профиль формата : Advanced Simple@L5
Параметр BVOP формата : Да
Параметр QPel формата : Нет
Параметр GMC формата : Без точки перехода
Параметр матрицы формата : Default (MPEG)
Идентификатор кодека : XVID
Идентификатор кодека/Подсказка : XviD
Продолжительность : 40 м. 49 с.
Битрейт : 1800 Кбит/сек
Ширина : 704 пикселя
Высота : 448 пикселей
Соотношение сторон : 16:10
Частота кадров : 25,000 кадров/сек
Цветовое пространство : YUV
Субдискретизация насыщенности : 4:2:0
Битовая глубина : 8 бит
Тип развёртки : Прогрессивная
Метод сжатия : С потерями
Бит/(Пиксели*Кадры) : 0.228
Размер потока : 525 Мбайт (93%)
Библиотека кодирования : XviD 73
Аудио
Идентификатор : 1
Формат : MPEG Audio
Версия формата : Version 1
Профиль формата : Layer 3
Идентификатор кодека : 55
Идентификатор кодека/Подсказка : MP3
Продолжительность : 40 м. 49 с.
Вид битрейта : Постоянный
Битрейт : 128 Кбит/сек
Каналы : 2 канала
Частота : 48,0 КГц
Метод сжатия : С потерями
Размер потока : 37,4 Мбайт
Выравнивание : Соединение по промежуткам
Продолжительность промежутка : 40 мс. (1,00 видеокадр)
Время предзагрузки промежутка : 504 мс.
Библиотека кодирования : LAME3.99r
Настройки программы : -m s -V 4 -q 2 -lowpass 17 -b 128

Скриншоты

[Цитировать]



Показать сообщения:    

Текущее время: 07-Май 13:18

Часовой пояс: UTC + 6


Вы не можете начинать темы
Вы не можете отвечать на сообщения
Вы не можете редактировать свои сообщения
Вы не можете удалять свои сообщения
Вы не можете голосовать в опросах
Вы не можете прикреплять файлы к сообщениям
Вы не можете скачивать файлы

!ВНИМАНИЕ!
Сайт не предоставляет электронные версии произведений, а занимается лишь коллекционированием и каталогизацией ссылок, присылаемых и публикуемых на форуме нашими читателями. Если вы являетесь правообладателем какого-либо представленного материала и не желаете, чтобы ссылка на него находилась в нашем каталоге, свяжитесь с нами, и мы незамедлительно удалим ее. Файлы для обмена на трекере предоставлены пользователями сайта, и администрация не несет ответственности за их содержание. Просьба не заливать файлы, защищенные авторскими правами, а также файлы нелегального содержания!