***Уважаемые пользователи и гости !!! Сайт переехал на новый домен Torrents-club.info. Просьба изменить ваши закладки! ***
 
[ Сегодня идет свободное скачивание без начисления Download ]


Статистика раздачи
Нет
 
   
 
 
 
VA - Euro - Trance 2001
Страна-производитель диска: Россия
Год издания диска: 2001
Жанр: Trance
Издатель (лейбл): Gold Records
Номер по каталогу: N/A
Аудио кодек: FLAC (*.flac)
Тип рипа: image+.cue
Битрейт аудио: lossless
Продолжительность: 01:16:02
Наличие сканов в содержимом раздачи: да

Треклист:

01. Gary & DJ High-ko 'Here I Go' [00:06:37]
02. Deedran 'Ananda' [00:05:23]
03. Insigma 'Open Your Eyes' [00:04:16]
04. Dance Nation 'Sunshine (Wippennberg Remix)' [00:04:41]
05. Tillman Unmacher 'On The Run (Ocean To Shore Club Extended)' [00:05:45]
06. P Erpetuous Dream 'The Sound Of Goodbye (Armin Van Burren's Rising Star Mix)' [00:08:10]
07. Riva 'Stringer (Club Mix)' [00:05:05]
08. Alpha Breed 'Alien Arrival' [00:08:03]
09. Fire & Ice 'Souvenir De Chine' [00:06:16]
10. Apoptygma Berzerg 'Kathy's Song (Ferry Corsten Remix)' [00:05:25]
11. Gizeh 'Fellin'good (Club Mix)' [00:05:33]
12. Plastic Angel 'Daylight' [00:05:20]
13. Barthezz 'On The Move (Riva Mix)' [00:05:22]

Отчёт EAC

Exact Audio Copy V1.0 beta 3 from 29. August 2011
Отчёт EAC об извлечении, выполненном 15. ноября 2011, 12:53
Various / Euro - Trance 2001
Дисковод: hp      CDDVDW TS-L633R   Adapter: 0  ID: 1
Режим чтения                 : Достоверность
Использование точного потока : Да
Отключение кэша аудио        : Да
Использование указателей C2  : Нет
Коррекция смещения при чтении                     : 6
Способность читать области Lead-in и Lead-out     : Нет
Заполнение пропущенных сэмплов тишиной            : Да
Удаление блоков с тишиной в начале и конце        : Нет
При вычислениях CRC использовались нулевые сэмплы : Да
Интерфейс                                         : Встроенный Win32-интерфейс для Win NT/2000
Выходной формат          : Пользовательский кодировщик
Выбранный битрейт        : 1024 kBit/s
Качество                 : Высокий
Добавление ID3-тега      : Нет
Утилита сжатия           : C:\Program Files\Exact Audio Copy\FLAC\FLAC.EXE
Дополнительные параметры : -V -8 -T "Date=%year%" -T "Genre=%genre%" %source%
TOC извлечённого CD
     Трек |   Старт  | Длительность | Начальный сектор | Конечный сектор
    ---------------------------------------------------------------------
       1  |  0:00.00 |    6:37.13   |           0      |      29787
       2  |  6:37.13 |    5:23.33   |       29788      |      54045
       3  | 12:00.46 |    4:16.59   |       54046      |      73304
       4  | 16:17.30 |    4:41.62   |       73305      |      94441
       5  | 20:59.17 |    5:45.17   |       94442      |     120333
       6  | 26:44.34 |    8:10.14   |      120334      |     157097
       7  | 34:54.48 |    5:05.08   |      157098      |     179980
       8  | 39:59.56 |    8:03.50   |      179981      |     216255
       9  | 48:03.31 |    6:16.25   |      216256      |     244480
      10  | 54:19.56 |    5:25.63   |      244481      |     268918
      11  | 59:45.44 |    5:33.02   |      268919      |     293895
      12  | 65:18.46 |    5:20.70   |      293896      |     317965
      13  | 70:39.41 |    5:22.51   |      317966      |     342166
Характеристики диапазона извлечения и сообщения об ошибках
Выбранный диапазон
     Имя файла H:\Мои Раздачи\Euro - Trance 2001\Various - Euro - Trance 2001.wav
     Пиковый уровень 100.0 %
     Скорость извлечения 3.3 X
     Качество диапазона 100.0 %
     CRC теста 91971489
     CRC копии 91971489
     Копирование... OK
Ошибок не произошло
AccurateRip: сводка
Трек  1  отсутствует в базе данных
Трек  2  отсутствует в базе данных
Трек  3  отсутствует в базе данных
Трек  4  отсутствует в базе данных
Трек  5  отсутствует в базе данных
Трек  6  отсутствует в базе данных
Трек  7  отсутствует в базе данных
Трек  8  отсутствует в базе данных
Трек  9  отсутствует в базе данных
Трек 10  отсутствует в базе данных
Трек 11  отсутствует в базе данных
Трек 12  отсутствует в базе данных
Трек 13  отсутствует в базе данных
Ни одного трека нет в базе AccurateRip
Конец отчёта

[Цитировать]



Показать сообщения:    

Текущее время: 09-Май 07:37

Часовой пояс: UTC + 6


Вы не можете начинать темы
Вы не можете отвечать на сообщения
Вы не можете редактировать свои сообщения
Вы не можете удалять свои сообщения
Вы не можете голосовать в опросах
Вы не можете прикреплять файлы к сообщениям
Вы не можете скачивать файлы

!ВНИМАНИЕ!
Сайт не предоставляет электронные версии произведений, а занимается лишь коллекционированием и каталогизацией ссылок, присылаемых и публикуемых на форуме нашими читателями. Если вы являетесь правообладателем какого-либо представленного материала и не желаете, чтобы ссылка на него находилась в нашем каталоге, свяжитесь с нами, и мы незамедлительно удалим ее. Файлы для обмена на трекере предоставлены пользователями сайта, и администрация не несет ответственности за их содержание. Просьба не заливать файлы, защищенные авторскими правами, а также файлы нелегального содержания!