***Уважаемые пользователи и гости !!! Сайт переехал на новый домен Torrents-club.info. Просьба изменить ваши закладки! ***
 
[ Сегодня идет свободное скачивание без начисления Download ]


Статистика раздачи
Нет
 
   
 
 
 
 
Нелл / Nell (1994) WEB-DLRip-AVC Производство: США
Жанр: Драма, экранизация
Продолжительность: 01:52:52
Перевод: Профессиональный (многоголосый, закадровый), авторский (одноголосый, закадровый) А.Гаврилов
Субтитры: Отсутствуют
Режиссер: Майкл Аптед
Актеры: Джоди Фостер, Лиам Нисон, Наташа Ричардсон, Ричард Либертини, Ник Сирси, Робин Маллинз, Джереми Дэвис, О’Нил Комптон, Хезер М. Бомба, Марианн Е. Бомба
Описание: Деревенский доктор Джером Ловелл обнаруживает в глухих местах Северной Каролины «дикарку», которая сторонится людей и говорит на неизвестном языке. Оказывается, мать воспитала Нелл и её сестру-близнеца без всякого контакта с цивилизацией. С самого рождения девочки не видели ни одного человека, кроме матери и друг друга. Из-за травмы речь матери Нелл была сильно искажена, в результате чего Нелл говорит на своем, особенном языке. После смерти матери и сестры повзрослевшей Нелл приходится выйти в большой мир. Врач, обнаруживший Нелл, предлагает оставить девушку в покое, но у психолога на этот счет свое мнение…
Экранизация по произведению: Марк Хэндли.

Качество видео: WEB-DLRip-AVC
Видео: AVC, 1024x440 (2.35:1), 23.976 fps, 2 187 Kbps (0.202 bit/pixel)
Аудио #1: AC-3, 48.0 KHz, 2 ch, 192 Kbps, CBR (Russian) - многоголосый
Аудио #2: AC-3, 48.0 KHz, 2 ch, 192 Kbps, CBR (Russian) - авторский А.Гаврилов
Аудио #3: AC-3, 48.0 KHz, 2 ch, 192 Kbps, CBR (English)

MediaInfo:

Формат : Matroska
Версия формата : Version 2
Размер файла : 2,18 Гбайт
Продолжительность : 1 ч. 52 м.
Общий поток : 2764 Кбит/сек
Дата кодирования : UTC 2017-02-07 15:55:38
Программа кодирования : mkvmerge v5.3.0 ('I could have danced') built on Feb 9 2012 10:38:07
Библиотека кодирования : libebml v1.2.3 + libmatroska v1.3.0
Attachments : poster 3.jpg
Видео
Идентификатор : 1
Формат : AVC
Формат/Информация : Advanced Video Codec
Профиль формата : High@L4.1
Параметр CABAC формата : Да
Параметр ReFrames формата : 11 кадров
Идентификатор кодека : V_MPEG4/ISO/AVC
Продолжительность : 1 ч. 52 м.
Битрейт : 2187 Кбит/сек
Ширина : 1024 пикселя
Высота : 440 пикселей
Соотношение сторон : 2,35:1
Режим частоты кадров : Постоянный
Частота кадров : 23,976 (24000/1001) кадра/сек
Цветовое пространство : YUV
Субдискретизация насыщенности : 4:2:0
Битовая глубина : 8 бит
Тип развёртки : Прогрессивная
Бит/(Пиксели*Кадры) : 0.202
Размер потока : 1,68 Гбайт (77%)
Библиотека кодирования : x264 core 146 r2538 121396c
Настройки программы : cabac=1 / ref=11 / deblock=1:-2:-2 / analyse=0x3:0x133 / me=umh / subme=10 / psy=1 / psy_rd=1.00:0.15 / mixed_ref=1 / me_range=32 / chroma_me=1 / trellis=2 / 8x8dct=1 / cqm=0 / deadzone=21,11 / fast_pskip=0 / chroma_qp_offset=-3 / threads=12 / lookahead_threads=2 / sliced_threads=0 / nr=0 / decimate=0 / interlaced=0 / bluray_compat=0 / constrained_intra=0 / bframes=8 / b_pyramid=2 / b_adapt=2 / b_bias=0 / direct=3 / weightb=1 / open_gop=0 / weightp=2 / keyint=240 / keyint_min=23 / scenecut=40 / intra_refresh=0 / rc=2pass / mbtree=0 / bitrate=2187 / ratetol=1.0 / qcomp=0.60 / qpmin=0 / qpmax=69 / qpstep=4 / cplxblur=20.0 / qblur=0.5 / ip_ratio=1.40 / pb_ratio=1.30 / aq=1:0.90
Default : Да
Forced : Нет
Аудио #1
Идентификатор : 2
Формат : AC-3
Формат/Информация : Audio Coding 3
Расширение режима : CM (complete main)
Параметр Endianness формата : Big
Идентификатор кодека : A_AC3
Продолжительность : 1 ч. 52 м.
Вид битрейта : Постоянный
Битрейт : 192 Кбит/сек
Каналы : 2 канала
Расположение каналов : Front: L R
Частота : 48,0 КГц
Частота кадров : 31,250 кадров/сек (1536 spf)
Битовая глубина : 16 бит
Метод сжатия : С потерями
Задержка видео : 200 мс.
Размер потока : 155 Мбайт (7%)
Заголовок : ПМ
Язык : Russian
Default : Нет
Forced : Да
Аудио #2
Идентификатор : 3
Формат : AC-3
Формат/Информация : Audio Coding 3
Расширение режима : CM (complete main)
Параметр Endianness формата : Big
Идентификатор кодека : A_AC3
Продолжительность : 1 ч. 52 м.
Вид битрейта : Постоянный
Битрейт : 192 Кбит/сек
Каналы : 2 канала
Расположение каналов : Front: L R
Частота : 48,0 КГц
Частота кадров : 31,250 кадров/сек (1536 spf)
Битовая глубина : 16 бит
Метод сжатия : С потерями
Задержка видео : 200 мс.
Размер потока : 155 Мбайт (7%)
Заголовок : АП (Гаврилов)
Язык : Russian
Default : Да
Forced : Да
Аудио #3
Идентификатор : 4
Формат : AC-3
Формат/Информация : Audio Coding 3
Расширение режима : CM (complete main)
Параметр Endianness формата : Big
Идентификатор кодека : A_AC3
Продолжительность : 1 ч. 52 м.
Вид битрейта : Постоянный
Битрейт : 192 Кбит/сек
Каналы : 2 канала
Расположение каналов : Front: L R
Частота : 48,0 КГц
Частота кадров : 31,250 кадров/сек (1536 spf)
Битовая глубина : 16 бит
Метод сжатия : С потерями
Размер потока : 155 Мбайт (7%)
Заголовок : Original
Язык : English
Default : Нет
Forced : Да
Текст
Идентификатор : 5
Формат : UTF-8
Идентификатор кодека : S_TEXT/UTF8
Идентификатор кодека/Информация : UTF-8 Plain Text
Язык : English
Default : Нет
Forced : Нет
Меню
00:00:00.000 : en:Chapter 01
00:03:03.000 : en:Chapter 02
00:07:56.000 : en:Chapter 03
00:12:02.000 : en:Chapter 04
00:14:28.000 : en:Chapter 05
00:18:32.000 : en:Chapter 06
00:21:45.000 : en:Chapter 07
00:24:06.000 : en:Chapter 08
00:27:31.000 : en:Chapter 09
00:29:59.000 : en:Chapter 10
00:34:03.000 : en:Chapter 11
00:40:36.000 : en:Chapter 12
00:43:50.000 : en:Chapter 13
00:47:29.000 : en:Chapter 14
00:52:23.000 : en:Chapter 15
00:55:20.000 : en:Chapter 16
01:01:47.000 : en:Chapter 17
01:03:03.000 : en:Chapter 18
01:05:51.000 : en:Chapter 19
01:08:55.000 : en:Chapter 20
01:17:35.000 : en:Chapter 21
01:20:10.000 : en:Chapter 22
01:24:32.000 : en:Chapter 23
01:28:01.000 : en:Chapter 24
01:34:21.000 : en:Chapter 25
01:39:51.000 : en:Chapter 26
01:45:26.000 : en:Chapter 27
01:49:20.000 : en:Chapter 28
Скриншоты:

[Цитировать]



Показать сообщения:    

Текущее время: 07-Май 14:09

Часовой пояс: UTC + 6


Вы не можете начинать темы
Вы не можете отвечать на сообщения
Вы не можете редактировать свои сообщения
Вы не можете удалять свои сообщения
Вы не можете голосовать в опросах
Вы не можете прикреплять файлы к сообщениям
Вы не можете скачивать файлы

!ВНИМАНИЕ!
Сайт не предоставляет электронные версии произведений, а занимается лишь коллекционированием и каталогизацией ссылок, присылаемых и публикуемых на форуме нашими читателями. Если вы являетесь правообладателем какого-либо представленного материала и не желаете, чтобы ссылка на него находилась в нашем каталоге, свяжитесь с нами, и мы незамедлительно удалим ее. Файлы для обмена на трекере предоставлены пользователями сайта, и администрация не несет ответственности за их содержание. Просьба не заливать файлы, защищенные авторскими правами, а также файлы нелегального содержания!