***Уважаемые пользователи и гости !!! Сайт переехал на новый домен Torrents-club.info. Просьба изменить ваши закладки! ***
 
[ Сегодня идет свободное скачивание без начисления Download ]


Статистика раздачи
Нет
 
   
 
 
 
 
Пещера / Cave (2016) HDRip Информация о фильме
Название: Пещера
Оригинальное название: Cave
Год выхода: 2016
Жанр: Триллер, приключения
Режиссер: Хенрик Мартин Дальсбаккен
В ролях: Мэдс Сьёгард Петтерсен, Беньямин Хельстад, Ингар Хельге Гимле
О фильме: Шарлотта, Адриан и Виктор когда-то вместе служили в одном батальоне. Поэтому они привыкли преодолевать трудности и бросать вызов опасности. Из всей троицы в армии остался лишь Виктор. Но они снова собираются вместе, чтобы преодолеть новую преграду - неизведанную систему пещер. Несколько лет назад там погибли двое финских водолазов. Тело одного из них так и не было найдено. После этого трагического случая пещера была закрыта. Однако троица лучших друзей не обращает на это внимания. Они хотят исследовать пещеру и найти выход на противоположной стороне горы. Их цель - стать первыми кому удастся сделать это и выбраться живыми. Казалось бы, что они все предусмотрели. Но то. с чем им предстоит столкнуть глубоко под землей, повергло их в ужас...

Страна: Норвегия
Студия: FilmBros
Продолжительность: 01:16:50
Перевод: Любительский (одноголосый, закадровый) | Хикикающий доктор
Субтитры: Нет
Семпл
Файл
Кодек: XviD
Качество: HDRip
Видео: 720x304 (2.37:1), 25 fps, XviD build 73 ~1152 kbps avg, 0.21 bit/pixel
Звук: 48 kHz, MPEG Layer 3, 2 ch, ~192.00 kbps avg

MediaInfo

Общее
Полное имя : Cave.2016.HDRip.ot.Portablius.avi
Формат : AVI
Формат/Информация : Audio Video Interleave
Размер файла : 744 Мбайт
Продолжительность : 1 ч. 16 м.
Общий поток : 1354 Кбит/сек
Программа кодирования : VirtualDubMod 1.5.10.3 | www.virtualdub-fr.org || (build 2550/release)
Библиотека кодирования : VirtualDubMod build 2550/release
Видео
Идентификатор : 0
Формат : MPEG-4 Visual
Профиль формата : Advanced Simple@L5
Параметр BVOP формата : 1
Параметр QPel формата : Нет
Параметр GMC формата : Без точки перехода
Параметр матрицы формата : Выборочная
Идентификатор кодека : XVID
Идентификатор кодека/Подсказка : XviD
Продолжительность : 1 ч. 16 м.
Битрейт : 1152 Кбит/сек
Ширина : 720 пикселей
Высота : 304 пикселя
Соотношение сторон : 2,35:1
Частота кадров : 25,000 кадров/сек
Цветовое пространство : YUV
Субдискретизация насыщенности : 4:2:0
Битовая глубина : 8 бит
Тип развёртки : Прогрессивная
Метод сжатия : С потерями
Бит/(Пиксели*Кадры) : 0.211
Размер потока : 633 Мбайт (85%)
Библиотека кодирования : XviD 73
Аудио
Идентификатор : 1
Формат : MPEG Audio
Версия формата : Version 1
Профиль формата : Layer 3
Идентификатор кодека : 55
Идентификатор кодека/Подсказка : MP3
Продолжительность : 1 ч. 16 м.
Вид битрейта : Постоянный
Битрейт : 192 Кбит/сек
Каналы : 2 канала
Частота : 48,0 КГц
Метод сжатия : С потерями
Размер потока : 106 Мбайт (14%)
Выравнивание : Соединение по промежуткам
Продолжительность промежутка : 40 мс. (1,00 видеокадр)
Время предзагрузки промежутка : 504 мс.
Библиотека кодирования : LAME3.99r
Настройки программы : -m s -V 4 -q 2 -lowpass 18.6 -b 192

Скриншоты

[Цитировать]



Показать сообщения:    

Текущее время: 07-Май 14:02

Часовой пояс: UTC + 6


Вы не можете начинать темы
Вы не можете отвечать на сообщения
Вы не можете редактировать свои сообщения
Вы не можете удалять свои сообщения
Вы не можете голосовать в опросах
Вы не можете прикреплять файлы к сообщениям
Вы не можете скачивать файлы

!ВНИМАНИЕ!
Сайт не предоставляет электронные версии произведений, а занимается лишь коллекционированием и каталогизацией ссылок, присылаемых и публикуемых на форуме нашими читателями. Если вы являетесь правообладателем какого-либо представленного материала и не желаете, чтобы ссылка на него находилась в нашем каталоге, свяжитесь с нами, и мы незамедлительно удалим ее. Файлы для обмена на трекере предоставлены пользователями сайта, и администрация не несет ответственности за их содержание. Просьба не заливать файлы, защищенные авторскими правами, а также файлы нелегального содержания!