***Уважаемые пользователи и гости !!! Сайт переехал на новый домен Torrents-club.info. Просьба изменить ваши закладки! ***
 
[ Сегодня идет свободное скачивание без начисления Download ]


Статистика раздачи
Нет
 
   
 
 
 
 
Три икса / xXx (2002) BDRip
«Суперагент Третьего Тысячелетия»
Страна: США
Год выпуска: 2002
Жанр: Боевик, триллер, приключения
Перевод: Дублированный
Субтитры: Нет
Продолжительность: 02:04:05-Режиссер: Роб Коэн-В ролях: Вин Дизель, Азия Ардженто, Мартон Чокаш, Сэмюэл Л. Джексон, Майкл Руф, Рихи Мюллер, Вернер Даен, Петр Якл, Ян Павел Филипенски, Том Эверетт-Сюжет фильма: Ксандер Кэйдж — спортсмен-экстремал. Этот жестокий парень может сделать то, что не в силах выполнить другие люди. Именно поэтому он привлекает к себе внимание Управления национальной безопасности. Оснащенный самой современной шпионской техникой и оружием, Кэйдж должен просочиться в русские криминальные круги, находящиеся в Праге. Ничто не может помешать этому шпиону нового поколения ХХХ выполнить свою миссию, и никто не способен отвлечь его от задания. Никто, кроме таинственной девушки Елены…- -Формат: AVI
Качество: BDRip-Видео: кодек: XviD, размер кадра: 720x304, битрейт: 1486 Кбит/сек frame rate: 23.976 кадра/сек
Аудио:язык: Русский, кодек: AC-3, число каналов: 2 канала, битрейт: 192 кб/с [DUB]

MI

General
Complete name : xXx.2002.BDRip.1.46Gb.MegaPeer.avi
Format : AVI
Format/Info : Audio Video Interleave
File size : 1.46 GiB
Duration : 2h 4mn
Overall bit rate : 1 686 Kbps
Video
ID : 0
Format : MPEG-4 Visual
Format profile : Advanced Simple@L5
Format settings, BVOP : 1
Format settings, QPel : No
Format settings, GMC : No warppoints
Format settings, Matrix : Custom
Codec ID : XVID
Codec ID/Hint : XviD
Duration : 2h 4mn
Bit rate : 1 486 Kbps
Width : 720 pixels
Height : 304 pixels
Display aspect ratio : 2.35:1
Frame rate : 23.976 (24000/1001) fps
Color space : YUV
Chroma subsampling : 4:2:0
Bit depth : 8 bits
Scan type : Progressive
Compression mode : Lossy
Bits/(Pixel*Frame) : 0.283
Stream size : 1.29 GiB (88%)
Writing library : XviD 73
Audio
ID : 1
Format : AC-3
Format/Info : Audio Coding 3
Mode extension : CM (complete main)
Format settings, Endianness : Big
Codec ID : 2000
Duration : 2h 4mn
Bit rate mode : Constant
Bit rate : 192 Kbps
Channel(s) : 2 channels
Channel positions : Front: L R
Sampling rate : 48.0 KHz
Frame rate : 31.250 fps (1536 spf)
Compression mode : Lossy
Stream size : 170 MiB (11%)
Alignment : Aligned on interleaves
Interleave, duration : 64 ms (1.53 video frames)
Interleave, preload duration : 192 ms
Title : BD
Скриншоты:

[Цитировать]



Показать сообщения:    

Текущее время: 19-Июн 06:46

Часовой пояс: UTC + 6


Вы не можете начинать темы
Вы не можете отвечать на сообщения
Вы не можете редактировать свои сообщения
Вы не можете удалять свои сообщения
Вы не можете голосовать в опросах
Вы не можете прикреплять файлы к сообщениям
Вы не можете скачивать файлы

!ВНИМАНИЕ!
Сайт не предоставляет электронные версии произведений, а занимается лишь коллекционированием и каталогизацией ссылок, присылаемых и публикуемых на форуме нашими читателями. Если вы являетесь правообладателем какого-либо представленного материала и не желаете, чтобы ссылка на него находилась в нашем каталоге, свяжитесь с нами, и мы незамедлительно удалим ее. Файлы для обмена на трекере предоставлены пользователями сайта, и администрация не несет ответственности за их содержание. Просьба не заливать файлы, защищенные авторскими правами, а также файлы нелегального содержания!