***Уважаемые пользователи и гости !!! Сайт переехал на новый домен Torrents-club.info. Просьба изменить ваши закладки! ***
 
[ Сегодня идет свободное скачивание без начисления Download ]


Статистика раздачи
Нет
 
   
 
 
 
 
Три икса 2: Новый уровень / xXx: State of the Union (2005) HDRip
«На грани хаоса и террора приходит время нового героя»
Страна: США
Год выпуска: 2005
Жанр: Боевик, триллер, криминал, приключения
Перевод: Дублированный
Субтитры: Нет
Продолжительность: 01:40:57-Режиссер: Ли Тамахори-В ролях: Айс Кьюб, Уиллем Дефо, Сэмюэл Л. Джексон, Эксзибит, Джон Дж. Коннолли, Рамон Де Окампо-Сюжет фильма: Америка снова в опасности, и на сей раз беда пришла откуда не ждали: удар по демократии был нанесен изнутри! Группа высокопоставленных заговорщиков в белом доме поднимает мятеж с целью захвата власти. Спецслужбы бессильны — бунтовщики разгромили Агентство Национальной Безопасности (АНБ).
Страна на грани хаоса и террора, но у чудом выжившего офицера АНБ Огастеса Гиббонса остается последний козырь, способный спасти положение. Это Дариус Стоун, крутой и хладнокровный суперагент XXI века, отобранный по сверхсекретной программе «Три Икса». Оставляя после себя смерть и разрушения, этот человек-армия вступает в битву, которая решит судьбу Америки и всего мира…- -Формат: AVI
Качество: HDRip-Видео: кодек: XviD, размер кадра: 720x304, битрейт: 1599 Кбит/сек frame rate: 23.976 кадра/сек
Аудио:язык: Русский, кодек: AC-3, число каналов: 6 каналов, битрейт: 448 кб/с [DUB]

MI

General
Complete name                  : xXx_2_HDRip__[scarabey.org].avi
Format                         : AVI
Format/Info                    : Audio Video Interleave
File size                      : 1.45 GiB
Duration                       : 1h 40mn
Overall bit rate               : 2 056 Kbps
Writing application            : VirtualDubMod 1.5.10.2 (build 2540/release)
Writing library                : VirtualDubMod build 2540/release
Video
ID                             : 0
Format                         : MPEG-4 Visual
Format profile                 : Advanced Simple@L5
Format settings, BVOP          : 1
Format settings, QPel          : No
Format settings, GMC           : No warppoints
Format settings, Matrix        : Custom
Codec ID                       : XVID
Codec ID/Hint                  : XviD
Duration                       : 1h 40mn
Bit rate                       : 1 599 Kbps
Width                          : 720 pixels
Height                         : 304 pixels
Display aspect ratio           : 2.35:1
Frame rate                     : 23.976 (23976/1000) fps
Color space                    : YUV
Chroma subsampling             : 4:2:0
Bit depth                      : 8 bits
Scan type                      : Progressive
Compression mode               : Lossy
Bits/(Pixel*Frame)             : 0.305
Stream size                    : 1.13 GiB (78%)
Writing library                : XviD 1.2.1 (UTC 2008-12-04)
Audio
ID                             : 1
Format                         : AC-3
Format/Info                    : Audio Coding 3
Mode extension                 : CM (complete main)
Format settings, Endianness    : Big
Codec ID                       : 2000
Duration                       : 1h 40mn
Bit rate mode                  : Constant
Bit rate                       : 448 Kbps
Channel(s)                     : 6 channels
Channel positions              : Front: L C R, Side: L R, LFE
Sampling rate                  : 48.0 KHz
Frame rate                     : 31.250 fps (1536 spf)
Compression mode               : Lossy
Stream size                    : 324 MiB (22%)
Alignment                      : Split accross interleaves
Interleave, duration           : 42 ms (1.00 video frame)
Interleave, preload duration   : 500 ms
Релиз от: Скриншоты:

[Цитировать]



Показать сообщения:    

Текущее время: 19-Июн 05:32

Часовой пояс: UTC + 6


Вы не можете начинать темы
Вы не можете отвечать на сообщения
Вы не можете редактировать свои сообщения
Вы не можете удалять свои сообщения
Вы не можете голосовать в опросах
Вы не можете прикреплять файлы к сообщениям
Вы не можете скачивать файлы

!ВНИМАНИЕ!
Сайт не предоставляет электронные версии произведений, а занимается лишь коллекционированием и каталогизацией ссылок, присылаемых и публикуемых на форуме нашими читателями. Если вы являетесь правообладателем какого-либо представленного материала и не желаете, чтобы ссылка на него находилась в нашем каталоге, свяжитесь с нами, и мы незамедлительно удалим ее. Файлы для обмена на трекере предоставлены пользователями сайта, и администрация не несет ответственности за их содержание. Просьба не заливать файлы, защищенные авторскими правами, а также файлы нелегального содержания!