***Уважаемые пользователи и гости !!! Сайт переехал на новый домен Torrents-club.info. Просьба изменить ваши закладки! ***
 
[ Сегодня идет свободное скачивание без начисления Download ]


Статистика раздачи
Нет
 
   
 
 
 
 
В лесах Сибири / Dans les forêts de Sibérie Информация о фильме
Название: В лесах Сибири
Оригинальное название: Dans les forêts de Sibérie
Год выхода: 2016
Жанр: Приключения
Режиссер: Сэфи Неббу
В ролях: Рафаэль Персонас, Евгений Сидихин
О фильме: В поисках самого себя Тедди сбегает от надоевшей суеты слишком европейской жизни и в разгар зимы пытается воссоединиться с природой, отправившись в маленькую хижину недалеко от озера Байкал. Однажды вечером, заблудившись в снежной буре, он с прискорбием понимает, что вот-вот расстанется с жизнью, но неожиданно его спасает Саша, русский парень, много лет скрывающийся в лесах из-за совершенного им преступления.

Страна: Франция, A Plus Image 5, Angoa, Canal+ [fr]
Продолжительность: 01:45:08
Перевод: Профессиональный (многоголосый) [iTunes]
Файл
Качество: BDRip (AVC)
Видео: MPEG-4 AVC, 1720 Kбит/с, 1024x552
Аудио: Русский (AC3, 6 ch, 384 Кбит/с), французский (AC3, 6 ch, 448 Кбит/с)
Субтитры: Местами имеются французкие на русскую речь!
Релиз группа:

MI

General
Unique ID : 254020399039722116004366597296309052283 (0xBF1A8C9EE5B1DCE5865F40FD1E2EA37B)
Complete name : D:In.The.Forests.Of.Siberia.2016.MVO.BDRip.AVC.ExKinoRay.mkv
Format : Matroska
Format version : Version 2
File size : 1.77 GiB
Duration : 1 h 39 min
Overall bit rate : 2 553 kb/s
Movie name : В лесах Сибири (2016) from ExKinoRay
Encoded date : UTC 2017-04-01 02:53:45
Writing application : mkvmerge v5.8.0 ('No Sleep / Pillow') built on Sep 2 2012 15:37:04
Writing library : libebml v1.2.3 + libmatroska v1.3.0
Video
ID : 1
Format : AVC
Format/Info : Advanced Video Codec
Format profile : High@L4.1
Format settings, CABAC : Yes
Format settings, ReFrames : 12 frames
Codec ID : V_MPEG4/ISO/AVC
Duration : 1 h 39 min
Bit rate : 1 720 kb/s
Width : 1 024 pixels
Height : 552 pixels
Display aspect ratio : 1.85:1
Frame rate mode : Constant
Frame rate : 24.000 FPS
Color space : YUV
Chroma subsampling : 4:2:0
Bit depth : 8 bits
Scan type : Progressive
Bits/(Pixel*Frame) : 0.127
Stream size : 1.16 GiB (65%)
Writing library : x264 core 144 r2525 40bb568
Encoding settings : cabac=1 / ref=12 / deblock=1:-2:-2 / analyse=0x3:0x113 / me=umh / subme=10 / psy=1 / psy_rd=1.00:0.05 / mixed_ref=1 / me_range=32 / chroma_me=1 / trellis=2 / 8x8dct=1 / cqm=0 / deadzone=21,11 / fast_pskip=1 / chroma_qp_offset=-3 / threads=12 / lookahead_threads=3 / sliced_threads=0 / nr=0 / decimate=1 / interlaced=0 / bluray_compat=0 / constrained_intra=0 / bframes=14 / b_pyramid=2 / b_adapt=2 / b_bias=0 / direct=3 / weightb=1 / open_gop=0 / weightp=2 / keyint=240 / keyint_min=24 / scenecut=40 / intra_refresh=0 / rc_lookahead=40 / rc=2pass / mbtree=0 / bitrate=1720 / ratetol=1.0 / qcomp=0.60 / qpmin=0 / qpmax=51 / qpstep=4 / cplxblur=20.0 / qblur=0.5 / vbv_maxrate=50000 / vbv_bufsize=62500 / nal_hrd=none / filler=0 / ip_ratio=1.40 / pb_ratio=1.30 / aq=1:1.00
Language : English
Default : Yes
Forced : No
Color range : Limited
Color primaries : BT.709
Transfer characteristics : BT.709
Matrix coefficients : BT.709
Audio #1
ID : 2
Format : AC-3
Format/Info : Audio Coding 3
Mode extension : CM (complete main)
Format settings, Endianness : Big
Codec ID : A_AC3
Duration : 1 h 39 min
Bit rate mode : Constant
Bit rate : 384 kb/s
Channel(s) : 6 channels
Channel positions : Front: L C R, Side: L R, LFE
Sampling rate : 48.0 kHz
Frame rate : 31.250 FPS (1536 spf)
Compression mode : Lossy
Stream size : 272 MiB (15%)
Title : MVO
Language : Russian
Default : Yes
Forced : No
Audio #2
ID : 3
Format : AC-3
Format/Info : Audio Coding 3
Mode extension : CM (complete main)
Format settings, Endianness : Big
Codec ID : A_AC3
Duration : 1 h 39 min
Bit rate mode : Constant
Bit rate : 448 kb/s
Channel(s) : 6 channels
Channel positions : Front: L C R, Side: L R, LFE
Sampling rate : 48.0 kHz
Frame rate : 31.250 FPS (1536 spf)
Compression mode : Lossy
Stream size : 318 MiB (18%)
Language : French
Default : No
Forced : No
Menu
00:00:00.000 : en:00:00:00.000
00:07:21.458 : en:00:07:21.458
00:14:41.167 : en:00:14:41.167
00:25:16.667 : en:00:25:16.667
00:31:13.667 : en:00:31:13.667
00:40:54.875 : en:00:40:54.875
00:48:48.500 : en:00:48:48.500
00:59:10.000 : en:00:59:10.000
01:03:46.667 : en:01:03:46.667
01:10:14.667 : en:01:10:14.667
01:19:49.042 : en:01:19:49.042
01:28:07.708 : en:01:28:07.708
01:35:41.500 : en:01:35:41.500

[Цитировать]



Показать сообщения:    

Текущее время: 22-Фев 18:58

Часовой пояс: UTC + 6


Вы не можете начинать темы
Вы не можете отвечать на сообщения
Вы не можете редактировать свои сообщения
Вы не можете удалять свои сообщения
Вы не можете голосовать в опросах
Вы не можете прикреплять файлы к сообщениям
Вы не можете скачивать файлы

!ВНИМАНИЕ!
Сайт не предоставляет электронные версии произведений, а занимается лишь коллекционированием и каталогизацией ссылок, присылаемых и публикуемых на форуме нашими читателями. Если вы являетесь правообладателем какого-либо представленного материала и не желаете, чтобы ссылка на него находилась в нашем каталоге, свяжитесь с нами, и мы незамедлительно удалим ее. Файлы для обмена на трекере предоставлены пользователями сайта, и администрация не несет ответственности за их содержание. Просьба не заливать файлы, защищенные авторскими правами, а также файлы нелегального содержания!