***Уважаемые пользователи и гости !!! Сайт переехал на новый домен Torrents-club.info. Просьба изменить ваши закладки! ***
 
[ Сегодня идет свободное скачивание без начисления Download ]


Статистика раздачи
Скачал: [ 1 ]
 
   
 
 
 
 
Фантомас / Fantômas (1964) BDRip-HEVC 1080p Информация о фильме
Название: Фантомас
Оригинальное название: Fantômas
Год выхода: 1964
Жанр: фэнтези, комедия, приключения, криминал
Режиссер: Андре Юнебель
В ролях: Жан Маре, Луи де Фюнес, Милен Демонжо, Жак Динам, Робер Дальбан, Мари-Элен Арно, Анн-Мари Пейссон, Кристиан Тома, Мишель Дюпле, Андре Таинси
О фильме:
Первый фильм трилогии о невероятных приключениях комиссара Жюва, преследующего неуловимого преступника Фантомаса. Париж потрясен сенсационными и дерзкими преступлениями, совершенными таинственным злодеем по имени Фантомас. На его поимку брошены все силы полиции, но Фантомас практически неуловим он все время меняет облик, ловко ускользая из рук правосудия. Напасть на его след удается только комиссару Жюву с помощью Элен, подруги похищенного журналиста Фандора.

Страна: Франция, Италия
Студия: Gaumont
Продолжительность: 01:44:15
Перевод: Дублированный (союзмультфильм)
Файл
Кодек: HEVC x265
Качество: BDRip-HEVC 1080p
Видео: 1920x816 (2,35:1), 6461 Кбит/сек, 0.172 бит/(Пиксели*Кадры), 24 кадр/сек, HEVC (Main@L.4.1@High) 8 бит
Звук: Русская, ААС, 192 Кбит/сек, Front: L R, 48,0 КГц
Субтитры: нет
Семпл

MediaInfo

Общее
Уникальный идентификатор : 181631184751159213656012888962517315144 (0x88A4E4CD1B4C0491B802E30832BE2E48)
Полное имя : I:HEVC 2FANTOMAS_1964_BDRip_1080p_[HEVC].mkv
Формат : Matroska
Версия формата : Version 4 / Version 2
Размер файла : 4,85 Гбайт
Продолжительность : 1 ч. 44 м.
Общий поток : 6656 Кбит/сек
Дата кодирования : UTC 2017-05-28 11:37:57
Программа кодирования : mkvmerge v9.7.1 ('Pandemonium') 64bit
Библиотека кодирования : libebml v1.3.4 + libmatroska v1.4.5
Обложка : Yes
Attachments : cover.png
Видео
Идентификатор : 1
Формат : HEVC
Формат/Информация : High Efficiency Video Coding
Профиль формата : Main@L4.1@High
Идентификатор кодека : V_MPEGH/ISO/HEVC
Продолжительность : 1 ч. 44 м.
Битрейт : 6461 Кбит/сек
Ширина : 1920 пикселей
Высота : 816 пикселей
Соотношение сторон : 2,35:1
Режим частоты кадров : Постоянный
Частота кадров : 24,000 кадра/сек
Цветовое пространство : YUV
Субдискретизация насыщенности : 4:2:0
Битовая глубина : 8 бит
Бит/(Пиксели*Кадры) : 0.172
Размер потока : 4,71 Гбайт (97%)
Библиотека кодирования : x265 2.4+6-fd01abfc7898:[Windows][GCC 6.3.0][64 bit] 8bit+10bit+12bit
Настройки программы : cpuid=1173503 / frame-threads=3 / numa-pools=8 / wpp / no-pmode / no-pme / no-psnr / no-ssim / log-level=2 / input-csp=1 / input-res=1920x816 / interlace=0 / total-frames=0 / level-idc=41 / high-tier=1 / uhd-bd=0 / ref=4 / no-allow-non-conformance / no-repeat-headers / annexb / no-aud / no-hrd / info / hash=0 / no-temporal-layers / open-gop / min-keyint=24 / keyint=250 / bframes=10 / b-adapt=2 / b-pyramid / bframe-bias=0 / rc-lookahead=25 / lookahead-slices=1 / scenecut=40 / no-intra-refresh / ctu=64 / min-cu-size=8 / rect / no-amp / max-tu-size=32 / tu-inter-depth=1 / tu-intra-depth=1 / limit-tu=0 / rdoq-level=2 / dynamic-rd=0.00 / no-ssim-rd / signhide / no-tskip / nr-intra=0 / nr-inter=0 / no-constrained-intra / strong-intra-smoothing / max-merge=3 / limit-refs=3 / limit-modes / me=2 / subme=4 / merange=57 / temporal-mvp / weightp / weightb / no-analyze-src-pics / deblock=0:0 / sao / no-sao-non-deblock / rd=4 / no-early-skip / rskip / no-fast-intra / no-tskip-fast / no-cu-lossless / no-b-intra / rdpenalty=0 / psy-rd=2.00 / psy-rdoq=1.00 / no-rd-refine / analysis-mode=0 / no-lossless / cbqpoffs=0 / crqpoffs=0 / rc=crf / crf=20.0 / qcomp=0.60 / qpstep=4 / stats-write=0 / stats-read=0 / vbv-maxrate=50000 / vbv-bufsize=50000 / vbv-init=0.9 / crf-max=0.0 / crf-min=0.0 / ipratio=1.40 / pbratio=1.30 / aq-mode=1 / aq-strength=1.00 / cutree / zone-count=0 / no-strict-cbr / qg-size=32 / no-rc-grain / qpmax=69 / qpmin=0 / sar=0 / overscan=0 / videoformat=5 / range=0 / colorprim=2 / transfer=2 / colormatrix=1 / chromaloc=0 / display-window=0 / max-cll=0,0 / min-luma=0 / max-luma=255 / log2-max-poc-lsb=8 / vui-timing-info / vui-hrd-info / slices=1 / opt-qp-pps / opt-ref-list-length-pps / no-multi-pass-opt-rps / scenecut-bias=0.05 / no-opt-cu-delta-qp / no-aq-motion / no-hdr / no-hdr-opt / no-dhdr10-opt / refine-level=5 / no-limit-sao
Default : Да
Forced : Да
Цветовой диапазон : Limited
Коэффициенты матрицы : BT.709
Аудио
Идентификатор : 2
Формат : AAC
Формат/Информация : Advanced Audio Codec
Профиль формата : LC
Идентификатор кодека : A_AAC
Продолжительность : 1 ч. 44 м.
Битрейт : 192 Кбит/сек
Каналы : 2 канала
Расположение каналов : Front: L R
Частота : 48,0 КГц
Частота кадров : 46,875 кадров/сек (1024 spf)
Метод сжатия : С потерями
Задержка видео : 21 мс.
Размер потока : 143 Мбайт (3%)
Заголовок : Dub
Язык : Russian
Default : Да
Forced : Нет

Скриншоты

[Цитировать]



Показать сообщения:    

Текущее время: 03-Авг 10:08

Часовой пояс: UTC + 6


Вы не можете начинать темы
Вы не можете отвечать на сообщения
Вы не можете редактировать свои сообщения
Вы не можете удалять свои сообщения
Вы не можете голосовать в опросах
Вы не можете прикреплять файлы к сообщениям
Вы не можете скачивать файлы

!ВНИМАНИЕ!
Сайт не предоставляет электронные версии произведений, а занимается лишь коллекционированием и каталогизацией ссылок, присылаемых и публикуемых на форуме нашими читателями. Если вы являетесь правообладателем какого-либо представленного материала и не желаете, чтобы ссылка на него находилась в нашем каталоге, свяжитесь с нами, и мы незамедлительно удалим ее. Файлы для обмена на трекере предоставлены пользователями сайта, и администрация не несет ответственности за их содержание. Просьба не заливать файлы, защищенные авторскими правами, а также файлы нелегального содержания!