***Уважаемые пользователи и гости !!! Сайт переехал на новый домен Torrents-club.info. Просьба изменить ваши закладки! ***
 
[ Сегодня идет свободное скачивание без начисления Download ]


Статистика раздачи
Нет
 
   
 
 
 
Черный Самурай / The Black Samurai
(2006) HDTV
-Информация:
Производство: Франция, ZED
Жанр: Документальный
Режиссер: Жан Квират
Участники: Бернард Матье - автор
Описание:
Сурма - самый древний народ на земле. Они живут в Великой рифтовой долине, где 195 тысяч лет назад появился homo sapiens. Их всего 28 тысяч, они живут в изоляции от всего мира и до сих пор берегут традиции своих предков. Вместе с тем память народа Сурма хранит тайны далекого прошлого, когда не было ни цивилизации, ни науки, ни истории. Фильм раскрывает самую загадочную традицию боев донго. Безжалостные схватки являются частью жестокой жизни этих племен, где слабость означает смерть.
Продолжительность: 00:51:00
Качество видео: HDTV
Перевод: Одноголосый закадровый, профессиональный (1 ТВЧ)
Субтитры: Отсутствуют
Файл:
Видео: AVC/H.264, 1920x1080, ~12,4 Mbps
Аудио: MP2, 2 ch, 192 Kbps

Mediainfo:

Общее
Идентификатор : 203 (0xCB)
Полное имя : F:\КИНО\Черный самурай.2006.HDTV.ts
Формат : MPEG-TS
Размер файла : 4,79 Гбайт
Продолжительность : 51 м. 53 с.
Режим общего битрейта : Переменный
Общий поток : 13,2 Мбит/сек
Видео
Идентификатор : 3011 (0xBC3)
Идентификатор меню : 3001 (0xBB9)
Формат : AVC
Формат/Информация : Advanced Video Codec
Профиль формата : Main@L4
Настройки формата : CABAC / 3 Ref Frames
Параметр CABAC формата : Да
Параметр RefFrames формата : 3 кадра
Идентификатор кодека : 27
Продолжительность : 51 м. 52 с.
Битрейт : 12,4 Мбит/сек
Ширина : 1920 пикселей
Высота : 1080 пикселей
Соотношение сторон : 16:9
Частота кадров : 25,000 кадров/сек
Стандарт вещания : Component
Цветовое пространство : YUV
Субдискретизация насыщенности : 4:2:0
Битовая глубина : 8 бит
Тип развёртки : Чересстрочная
Метод сохранения типа развёртки : Раздельные поля
Порядок развёртки : Верхнее поле первое
Бит/(Пиксели*Кадры) : 0.239
Размер потока : 4,48 Гбайт (94%)
Цветовой диапазон : Limited
Основные цвета : BT.709
Характеристики трансфера : BT.709
Коэффициенты матрицы : BT.709
Аудио
Идентификатор : 3012 (0xBC4)
Идентификатор меню : 3001 (0xBB9)
Формат : MPEG Audio
Версия формата : Version 1
Профиль формата : Layer 2
Идентификатор кодека : 4
Продолжительность : 51 м. 53 с.
Вид битрейта : Постоянный
Битрейт : 192 Кбит/сек
Каналы : 2 канала
Частота : 48,0 КГц
Метод сжатия : С потерями
Задержка видео : -1 с. 36 мс.
Размер потока : 71,3 Мбайт (1%)

Скриншоты

Скриншоты:

Дополнительные скриншоты:

[Цитировать]



Показать сообщения:    

Текущее время: 13-Июн 12:26

Часовой пояс: UTC + 6


Вы не можете начинать темы
Вы не можете отвечать на сообщения
Вы не можете редактировать свои сообщения
Вы не можете удалять свои сообщения
Вы не можете голосовать в опросах
Вы не можете прикреплять файлы к сообщениям
Вы не можете скачивать файлы

!ВНИМАНИЕ!
Сайт не предоставляет электронные версии произведений, а занимается лишь коллекционированием и каталогизацией ссылок, присылаемых и публикуемых на форуме нашими читателями. Если вы являетесь правообладателем какого-либо представленного материала и не желаете, чтобы ссылка на него находилась в нашем каталоге, свяжитесь с нами, и мы незамедлительно удалим ее. Файлы для обмена на трекере предоставлены пользователями сайта, и администрация не несет ответственности за их содержание. Просьба не заливать файлы, защищенные авторскими правами, а также файлы нелегального содержания!