***Уважаемые пользователи и гости !!! Сайт переехал на новый домен Torrents-club.info. Просьба изменить ваши закладки! ***
 
[ Сегодня идет свободное скачивание без начисления Download ]


Статистика раздачи
Нет
 
   
 
 
 
 
Внезапная смерть / Sudden Death Информация о фильме
Название: Внезапная смерть
Оригинальное название: Sudden Death
Год выхода: 1995
Жанр: боевик, триллер, драма
Режиссер: Питер Хайамс
В ролях: Жан-Клод Ван Дамм, Пауэрс Бут, Рэймонд Дж. Бэрри, Уиттни Райт, Росс Мэлинджер, Дориан Хэрвуд, Кейт МакНил, Майкл Гэстон, Одра Линдли, Брайан Дилейт, Стив Аронсон, Майкл Р. Обеле, Карен Элиз Болдуин, Дженнифер Д. Баузер, Пэт Бриссон, Гленда Морган Браун, Джофри С. Браун, Уильям Камерон, Бернард Канепари, Джэй Кофилд, Алан Клемент, Билл Клемент, Билл Дэлзелл, Гилберт Б. Комбс, Джэк Эрди, Эд Эванко, Дэвид Флик, Гленн Алан Гарднер, Джон Холл, Джефф Хабберстэд
О фильме :
Во время проведения решающего хоккейного матча кубка Стенли гигантский стадион оказывается в заложниках у группы террористов, возглавляемых бывшим сотрудником службы безопасности. В случае отказа или задержки выполнения их требований (перевод значительной суммы на различные банковские счета) преступники грозятся взорвать здание. На их беду, среди персонала спорткомплекса оказывается мужественный пожарный, а среди зрителей подвергающихся смертельной опасности, — его дети.

Страна: США
Студия: Imperial Entertainment, Signature Entertainment, Universal Pictures
Продолжительность: 01:49:58
Перевод: Профессиональный (многоголосый закадровый) | Премьер Видео
Файл
Формат: MKV
Качество: HDRip-AVC
Видео: MPEG-4 AVC, 768x328, ~ 870 Кбит/с
Аудио: AAC-LC, 2 ch, ~ 76 Кбит/с
Субтитры: Русские, английские

MI

Общее
Уникальный идентификатор : 211596224379014580977293627814802211830 (0x9F2FF351ADFD2B4586636E799A99C3F6)
Полное имя : D:MOVIESSudden.Death.1995.ExKinoRay.mkv
Формат : Matroska
Версия формата : Version 4 / Version 2
Размер файла : 746 Мбайт
Продолжительность : 1 ч. 49 м.
Общий поток : 948 Кбит/сек
Дата кодирования : UTC 2017-10-21 12:38:44
Программа кодирования : mkvmerge v15.0.0 ('Duel with the Devil') 64-bit
Библиотека кодирования : libebml v1.3.5 + libmatroska v1.4.5
Видео
Идентификатор : 1
Формат : AVC
Формат/Информация : Advanced Video Codec
Профиль формата : High@L4.1
Параметр CABAC формата : Да
Параметр RefFrames формата : 10 кадров
Идентификатор кодека : V_MPEG4/ISO/AVC
Продолжительность : 1 ч. 49 м.
Битрейт : 870 Кбит/сек
Ширина : 768 пикселей
Высота : 328 пикселей
Соотношение сторон : 2,35:1
Режим частоты кадров : Постоянный
Частота кадров : 23,976 (24000/1001) кадра/сек
Цветовое пространство : YUV
Субдискретизация насыщенности : 4:2:0
Битовая глубина : 8 бит
Тип развёртки : Прогрессивная
Бит/(Пиксели*Кадры) : 0.144
Размер потока : 684 Мбайт (92%)
Библиотека кодирования : x264 core 152 r2851kMod ba24899
Настройки программы : cabac=1 / ref=10 / deblock=1:-3:-2 / analyse=0x3:0x133 / me=umh / subme=11 / psy=1 / fade_compensate=0.00 / psy_rd=1.00:0.05 / mixed_ref=1 / me_range=32 / chroma_me=1 / trellis=2 / 8x8dct=1 / cqm=0 / deadzone=21,11 / fast_pskip=0 / chroma_qp_offset=-3 / threads=6 / lookahead_threads=1 / sliced_threads=0 / nr=0 / decimate=0 / interlaced=0 / bluray_compat=0 / constrained_intra=0 / bframes=10 / b_pyramid=2 / b_adapt=2 / b_bias=0 / direct=3 / weightb=1 / open_gop=0 / weightp=2 / keyint=240 / keyint_min=23 / scenecut=40 / intra_refresh=0 / rc_lookahead=40 / rc=2pass / mbtree=1 / bitrate=870 / ratetol=1.0 / qcomp=0.60 / qpmin=0 / qpmax=69 / qpstep=4 / cplxblur=20.0 / qblur=0.5 / vbv_maxrate=50000 / vbv_bufsize=62500 / nal_hrd=none / filler=0 / ip_ratio=1.40 / aq=3:1.00
Default : Да
Forced : Нет
Аудио
Идентификатор : 2
Формат : AAC
Формат/Информация : Advanced Audio Codec
Профиль формата : LC
Идентификатор кодека : A_AAC
Продолжительность : 1 ч. 49 м.
Битрейт : 76,0 Кбит/сек
Каналы : 2 канала
Расположение каналов : Front: L R
Частота : 48,0 КГц
Частота кадров : 46,875 кадров/сек (1024 SPF)
Метод сжатия : С потерями
Задержка видео : 9 мс.
Размер потока : 59,8 Мбайт (8%)
Язык : Russian
Default : Да
Forced : Нет
Текст #1
Идентификатор : 3
Формат : UTF-8
Идентификатор кодека : S_TEXT/UTF8
Идентификатор кодека/Информация : UTF-8 Plain Text
Продолжительность : 1 ч. 43 м.
Битрейт : 85 бит/сек
ElementCount : 1038
Размер потока : 64,6 Кбайт (0%)
Язык : Russian
Default : Нет
Forced : Нет
Текст #2
Идентификатор : 4
Формат : UTF-8
Идентификатор кодека : S_TEXT/UTF8
Идентификатор кодека/Информация : UTF-8 Plain Text
Продолжительность : 1 ч. 44 м.
Битрейт : 57 бит/сек
ElementCount : 1372
Размер потока : 44,1 Кбайт (0%)
Язык : English
Default : Нет
Forced : Нет
Меню
00:00:00.000 : en:Main Titles; Under Fire
00:03:25.830 : en:Game Day
00:07:24.110 : en:The Terrorists
00:20:31.605 : en:The Hostile Takeover
00:36:52.543 : en:The Killer Penguin
00:42:21.872 : en:A Gunman on the Griddle
00:44:24.828 : en:One Big Bomb
00:52:46.371 : en:Death on Ice
00:58:50.902 : en:The Message on the Billboard
01:00:46.100 : en:McCord Makes His Point
01:19:40.817 : en:The New Goalie
01:30:19.497 : en:The Top of the World
01:33:24.265 : en:Death on the Dome
01:36:07.970 : en:The Sky-Cam Assault
01:41:47.810 : en:The Face-Off
01:45:58.018 : en:End Titles

Скриншоты


[Цитировать]



Показать сообщения:    

Текущее время: 31-Май 18:11

Часовой пояс: UTC + 6


Вы не можете начинать темы
Вы не можете отвечать на сообщения
Вы не можете редактировать свои сообщения
Вы не можете удалять свои сообщения
Вы не можете голосовать в опросах
Вы не можете прикреплять файлы к сообщениям
Вы не можете скачивать файлы

!ВНИМАНИЕ!
Сайт не предоставляет электронные версии произведений, а занимается лишь коллекционированием и каталогизацией ссылок, присылаемых и публикуемых на форуме нашими читателями. Если вы являетесь правообладателем какого-либо представленного материала и не желаете, чтобы ссылка на него находилась в нашем каталоге, свяжитесь с нами, и мы незамедлительно удалим ее. Файлы для обмена на трекере предоставлены пользователями сайта, и администрация не несет ответственности за их содержание. Просьба не заливать файлы, защищенные авторскими правами, а также файлы нелегального содержания!