***Уважаемые пользователи и гости !!! Сайт переехал на новый домен Torrents-club.info. Просьба изменить ваши закладки! ***
 
[ Сегодня идет свободное скачивание без начисления Download ]


Статистика раздачи
Скачал: [ 1 ]
 
   
 
 
 
 
Судьба
Ночь Схватки
Gekijouban Fate
- Информация:
Оригинальное название: Gekijouban Fate / Stay Night: Unlimited Blade Works
Русское название: Судьба: Ночь Схватки
Выпуск: 23.01.2010
Страна: Япония
Жанр: Фэнтези, приключения, романтика, драма
Продолжительность: Фильм полнометражный 107 мин.
Режиссёр: Ямагути Юдзи
Автор оригинала: Насу Киноко
Студия: DEEN
Краткое содержание
И снова в городке Фуюки кипит магическая война за Святой Грааль, в которую среди семи Мастеров-магов оказался втянут мало что понимающий школьник Сиро Эмия. Действия сторон хаотичны, союзы скоротечны, предательство ждет за каждым углом. Но в борьбе всех против всех мы теперь узнаем иную историю, которая проливает новый свет на происхождение и отношения полюбившихся героев. Мир состоит из деталей, и даже маленькая развилка способна полностью перекроить вроде бы знакомый сюжет и заставить нас забыть обо всем, оказавшись под багровым солнцем на поле из клинков…
Больше дела, меньше слов – вот девиз нового воплощения «Ночи схватки». Все великолепие современной анимации - в фильме про Бесконечный Мир Клинков! Еще никогда битвы во вселенной Type-Moon не выглядели так роскошно!


Файл:
Формат: .mkv
Качество: BDRip
Видео: x264, 1280x720, 5 047 kbps, 23.976 fps
Звук (Russian): AC3, 193 kbps, 48000 Hz, 2 ch | [MVO]
Звук (Russian): AC3, 640 kbps, 48000 Hz, 6 ch | [MVO] (Внешний файл)
Звук (Japanese): AC3, 640 kbps, 48000 Hz, 6 ch | [Original]
Субтитры (Russian): Ass, встроенные | [Надписи]
Субтитры (Russian): Ass, встроенные | [Полные]

О фильме:

События полнометражного фильма основаны на второй арке визуальной новеллы Fate / Stay Night от Typе-Moon.
Фильм не является продолжением сериала, и события в нем происходят в тот же временной период.
Все, кроме основного, в виде призыва Арчера, событий между Лансером и Широ, и появления Сэйбер - абсолютно отличается от сериала.

MediaInfo:


General
Unique ID : 236938835802000472970846780086586495139 (0xB240C287E26BFED985D0FECCDFC4D0A3)
Complete name : E:\[AniFilm] Fate Stay Night-Unlimited Blade Works [Movie][MVO]\[AniFilm] Fate Stay Night-Unlimited Blade Works [Movie][1280x720 x264] [Ru Jp] [MVO].mkv
Format : Matroska
Format version : Version 2
File size : 4.47 GiB
Duration : 1 h 45 min
Overall bit rate : 6 064 kb/s
Movie name : Fate/Stay Night ・ Unlimited Blade Works
Encoded date : UTC 2013-07-16 13:51:43
Writing application : mkvmerge v6.2.0 ('Promised Land') built on Apr 28 2013 12:22:01
Writing library : libebml v1.3.0 + libmatroska v1.4.0
Attachments : ArnoPro-Smbd.otf / Profile-Medium.otf / Profile-Regular.otf / 54151__.TTF / arial.ttf / fansubBlock.ttf / FRABK.TTF / FrancoisBold.ttf / FTLTLT.TTF / ipag-mona.ttf / TEMPSITC.TTF / times.ttf / verdana.ttf
Video
ID : 1
Format : AVC
Format/Info : Advanced Video Codec
Format profile : High@L4.1
Format settings : CABAC / 8 Ref Frames
Format settings, CABAC : Yes
Format settings, RefFrames : 8 frames
Codec ID : V_MPEG4/ISO/AVC
Duration : 1 h 45 min
Bit rate : 5 047 kb/s
Width : 1 280 pixels
Height : 720 pixels
Display aspect ratio : 16:9
Frame rate mode : Constant
Frame rate : 23.976 (24000/1001) FPS
Color space : YUV
Chroma subsampling : 4:2:0
Bit depth : 8 bits
Scan type : Progressive
Bits/(Pixel*Frame) : 0.228
Stream size : 3.72 GiB (83%)
Title : H.264 720p BD
Writing library : x264 core 106 r1732 b20059a
Encoding settings : cabac=1 / ref=9 / deblock=1:-3:-2 / analyse=0x3:0x133 / me=umh / subme=10 / psy=1 / psy_rd=0.75:0.15 / mixed_ref=1 / me_range=32 / chroma_me=1 / trellis=2 / 8x8dct=1 / cqm=0 / deadzone=21,11 / fast_pskip=0 / chroma_qp_offset=-4 / threads=6 / sliced_threads=0 / nr=45 / decimate=1 / interlaced=0 / constrained_intra=0 / bframes=8 / b_pyramid=1 / b_adapt=2 / b_bias=0 / direct=3 / weightb=1 / open_gop=0 / weightp=2 / keyint=240 / keyint_min=24 / scenecut=30 / intra_refresh=0 / rc_lookahead=60 / rc=crf / mbtree=1 / crf=15.5 / qcomp=0.70 / qpmin=10 / qpmax=51 / qpstep=4 / ip_ratio=1.40 / aq=2:1.10
Language : Japanese
Default : No
Forced : No
Color range : Limited
Color primaries : BT.709
Transfer characteristics : BT.709
Matrix coefficients : BT.709
Audio #1
ID : 2
Format : AC-3
Format/Info : Audio Coding 3
Format settings, Endianness : Big
Codec ID : A_AC3
Duration : 1 h 45 min
Bit rate mode : Constant
Bit rate : 256 kb/s
Channel(s) : 2 channels
Channel positions : Front: L R
Sampling rate : 48.0 kHz
Frame rate : 31.250 FPS (1536 SPF)
Bit depth : 16 bits
Compression mode : Lossy
Stream size : 193 MiB (4%)
Title : MVO @AniFilm
Language : Russian
Service kind : Complete Main
Default : Yes
Forced : Yes
Audio #2
ID : 3
Format : AC-3
Format/Info : Audio Coding 3
Format settings, Endianness : Big
Codec ID : A_AC3
Duration : 1 h 45 min
Bit rate mode : Constant
Bit rate : 640 kb/s
Channel(s) : 6 channels
Channel positions : Front: L C R, Side: L R, LFE
Sampling rate : 48.0 kHz
Frame rate : 31.250 FPS (1536 SPF)
Bit depth : 16 bits
Compression mode : Lossy
Stream size : 483 MiB (11%)
Title : Original
Language : Japanese
Service kind : Complete Main
Default : No
Forced : No
Text #1
ID : 4
Format : ASS
Codec ID : S_TEXT/ASS
Codec ID/Info : Advanced Sub Station Alpha
Compression mode : Lossless
Title : Надписи
Language : Russian
Default : Yes
Forced : Yes
Text #2
ID : 5
Format : ASS
Codec ID : S_TEXT/ASS
Codec ID/Info : Advanced Sub Station Alpha
Compression mode : Lossless
Title : Субтитры
Language : Russian
Default : No
Forced : No

Дополнительная информация

Переводчики: Ryou-kai, Hollow
Озвучивание: DemonOFmooN, Drey, Korin, Lali, MezIdA, Mukuro, Мулентий, Муневра, Nutbar, NeaR, Mosa. (Любительское многоголосое закадровое)
Тайминг и координация: NeaR
Работа со звуком: Мулентий
Рип: UTW

[Цитировать]



Показать сообщения:    

Текущее время: 07-Июн 11:58

Часовой пояс: UTC + 6


Вы не можете начинать темы
Вы не можете отвечать на сообщения
Вы не можете редактировать свои сообщения
Вы не можете удалять свои сообщения
Вы не можете голосовать в опросах
Вы не можете прикреплять файлы к сообщениям
Вы не можете скачивать файлы

!ВНИМАНИЕ!
Сайт не предоставляет электронные версии произведений, а занимается лишь коллекционированием и каталогизацией ссылок, присылаемых и публикуемых на форуме нашими читателями. Если вы являетесь правообладателем какого-либо представленного материала и не желаете, чтобы ссылка на него находилась в нашем каталоге, свяжитесь с нами, и мы незамедлительно удалим ее. Файлы для обмена на трекере предоставлены пользователями сайта, и администрация не несет ответственности за их содержание. Просьба не заливать файлы, защищенные авторскими правами, а также файлы нелегального содержания!