***Уважаемые пользователи и гости !!! Сайт переехал на новый домен Torrents-club.info. Просьба изменить ваши закладки! ***
 
[ Сегодня идет свободное скачивание без начисления Download ]


Статистика раздачи
Нет
 
   
 
 
 
 
Истории Андромеды
Andromeda Stories
- Информация о фильме
Название: Истории Андромеды
Оригинальное название: Andromeda Stories
Год выхода: 1982
Жанр: приключения, фантастика
Автор оригинала: Такэмия Кэйко
Режиссер: Сасаки Масамицу
В ролях: Фуруя Тору, Кояма Мами, Фудзита Тосико, Иноэ Макио, Уэда Миюки, Сугияма Кадзуко, Нода Кэйити, Сибата Хидэкацу, Сиодзава Канэто, Кавасима Тиёко, Кисино Кадзухико, Асо Миёко, Ёсио Канэути, Нодзава Нати, Накано Сэйко, Сато Масахару
О фильме:
Галактике Андромеды уже 2.2 миллиона лет, на планете Астриас процветает развитая цивилизация.
Принц Итака восходит на престол как Астралта третий и женится на принцессе Лилия, их союз должен быть началом золотого века на планете. Однако счастливое будущее затмило нашествие таинственных машин подчиняющих своей воле разум живых существ. Вскоре королева Лилия рождает близнецов. Вся надежда человечества легла на плечи двух близнецов-наследников - принца Джимса и его сестры Аффл и их верных товарищей. Они должны спасти Империю, пока технологии окончательно не уничтожат органическую жизнь. В последней битве выяснилось, что лишь уничтожив планету можно избавиться от всех врагов. После взрыва родной планеты Джимса и Аффл отправились далеко в космос, где повстречают на своем пути молодую голубую планету...

Страна: Япония
Студия: Toei Animation
Продолжительность: 01:25:00
Перевод: Любительский двухголосный закадровый
Озвучка двухголосная, мужск. и женск.: micola777 и Eva
Тайминг: micola777
Работа со звуком: micola777
Файл
Кодек: H264/AVC
Качество: DVDRip-AVC | L2
Автор рипа: OnDeed
Видео: 714х478, 10 бит, 3990 кбит/сек, 23.976 кадра/сек
Звук:
AC-3, 384 кбит/сек, 48.0 кГц, 2 канала Язык Русский (в составе контейнера)
AC-3, 384 кбит/сек, 48.0 кГц, 2 канала Язык Японский
Субтитры:
ASS, встроенные(отключаемые) Язык субтитров русский ; Перевод: Toba Kiriko
ASS, встроенные(отключаемые) Язык субтитров английский ; Перевод 2: OnDeed

Скриншоты



MediaInfo

Общее
Уникальный идентификатор : 252644613839014157912375523716749923170 (0xBE11952C5B2ADD2DB6EB5AA0EFFD1362)
Полное имя : [OpenDub]_Andromeda_Stories_[RUS_JP_SUB]_[DVDRip_714x478_AC3]_[Eva_&_micola777].mkv
Формат : Matroska
Версия формата : Version 2
Размер файла : 2,87 Гбайт
Продолжительность : 1 ч. 24 м.
Общий поток : 4854 Кбит/сек
Название фильма : Andromeda Stories (1982) [OnDeed]
Дата кодирования : UTC 2017-02-05 13:37:14
Программа кодирования : mkvmerge v3.3.0 ('Language') built on Mar 24 2010 14:59:24
Библиотека кодирования : libebml v0.8.0 + libmatroska v0.9.0
Attachments : GillSansMTPro-Medium.otf / GillSansMTPro-MediumItalic.otf / MetaPro-Medium.otf / MetaPro-MediumItalic.otf
Видео
Идентификатор : 1
Формат : AVC
Формат/Информация : Advanced Video Codec
Профиль формата : High 10@L4
Параметр CABAC формата : Да
Параметр ReFrames формата : 16 кадров
Идентификатор кодека : V_MPEG4/ISO/AVC
Продолжительность : 1 ч. 24 м.
Битрейт : 3990 кбит/сек
Ширина : 714 пикселей
Высота : 478 пикселей
Соотношение сторон : 4:3
Соотношение сторон в оригинале : 4:3
Режим частоты кадров : Постоянный
Частота кадров : 23,976 (24000/1001) кадра/сек
Цветовое пространство : YUV
Субдискретизация насыщенности : 4:2:0
Битовая глубина : 10 бит
Тип развёртки : Прогрессивная
Бит/(Пиксели*Кадры) : 0.488
Размер потока : 2,36 Гбайт (82%)
Заголовок : [OnDeed]
Библиотека кодирования : x264 core 144 r2525 40bb568
Настройки программы : cabac=1 / ref=16 / deblock=1:0:0 / analyse=0x3:0x133 / me=tesa / subme=10 / psy=1 / psy_rd=1.00:0.00 / mixed_ref=1 / me_range=32 / chroma_me=1 / trellis=2 / 8x8dct=1 / cqm=0 / deadzone=21,11 / fast_pskip=0 / chroma_qp_offset=-2 / threads=1 / lookahead_threads=1 / sliced_threads=0 / nr=0 / decimate=1 / interlaced=0 / bluray_compat=0 / constrained_intra=0 / bframes=10 / b_pyramid=2 / b_adapt=2 / b_bias=0 / direct=3 / weightb=1 / open_gop=0 / weightp=2 / keyint=320 / keyint_min=5 / scenecut=40 / intra_refresh=0 / rc=crf / mbtree=0 / crf=16.0 / qcomp=0.60 / qpmin=0 / qpmax=35 / qpstep=4 / ip_ratio=1.40 / pb_ratio=1.30 / aq=1:0.80
Язык : Japanese
Default : Да
Forced : Да
Цветовой диапазон : Limited
Коэффициенты матрицы : BT.601
Аудио #1
Идентификатор : 2
Формат : AC-3
Формат/Информация : Audio Coding 3
Расширение режима : CM (complete main)
Параметр Endianness формата : Big
Идентификатор кодека : A_AC3
Продолжительность : 1 ч. 24 м.
Вид битрейта : Постоянный
Битрейт : 384 кбит/сек
Каналы : 2 канала
Расположение каналов : Front: L R
Частота : 48,0 кГц
Частота кадров : 31,250 кадров/сек (1536 spf)
Битовая глубина : 16 бит
Метод сжатия : С потерями
Размер потока : 233 Мбайт (8%)
Заголовок : [OpenDub]_micola777_&_Eva
Язык : Russian
Default : Да
Forced : Да
Аудио #2
Идентификатор : 4
Формат : AC-3
Формат/Информация : Audio Coding 3
Расширение режима : CM (complete main)
Параметр Endianness формата : Big
Идентификатор кодека : A_AC3
Продолжительность : 1 ч. 24 м.
Вид битрейта : Постоянный
Битрейт : 384 кбит/сек
Каналы : 2 канала
Расположение каналов : Front: L R
Частота : 48,0 кГц
Частота кадров : 31,250 кадров/сек (1536 spf)
Битовая глубина : 16 бит
Метод сжатия : С потерями
Размер потока : 233 Мбайт (8%)
Заголовок : [Original]
Язык : Japanese
Default : Нет
Forced : Нет
Текст #1
Идентификатор : 3
Формат : ASS
Идентификатор кодека : S_TEXT/ASS
Идентификатор кодека/Информация : Advanced Sub Station Alpha
Метод сжатия : Без потерь
Заголовок : [Toba Kiriko]
Язык : Russian
Default : Нет
Forced : Нет
Текст #2
Идентификатор : 5
Формат : ASS
Идентификатор кодека : S_TEXT/ASS
Идентификатор кодека/Информация : Advanced Sub Station Alpha
Метод сжатия : Без потерь
Язык : English
Default : Нет
Forced : Нет

[Цитировать]



Показать сообщения:    

Текущее время: 05-Июн 07:30

Часовой пояс: UTC + 6


Вы не можете начинать темы
Вы не можете отвечать на сообщения
Вы не можете редактировать свои сообщения
Вы не можете удалять свои сообщения
Вы не можете голосовать в опросах
Вы не можете прикреплять файлы к сообщениям
Вы не можете скачивать файлы

!ВНИМАНИЕ!
Сайт не предоставляет электронные версии произведений, а занимается лишь коллекционированием и каталогизацией ссылок, присылаемых и публикуемых на форуме нашими читателями. Если вы являетесь правообладателем какого-либо представленного материала и не желаете, чтобы ссылка на него находилась в нашем каталоге, свяжитесь с нами, и мы незамедлительно удалим ее. Файлы для обмена на трекере предоставлены пользователями сайта, и администрация не несет ответственности за их содержание. Просьба не заливать файлы, защищенные авторскими правами, а также файлы нелегального содержания!