***Уважаемые пользователи и гости !!! Сайт переехал на новый домен Torrents-club.info. Просьба изменить ваши закладки! ***
 
[ Сегодня идет свободное скачивание без начисления Download ]


Статистика раздачи
Нет
 
   
 
 
 
 
だがしかし / Dagashi Kashi / Магазинчик сладостей - Информация:
Тип: TV
Жанр: комедия, повседневность, пародия
Продолжительность: 12 эп., ~24 мин.
Дата выпуска: c 08.01.2016 по 01.04.2016
Производство: Япония/feel.
Автор оригинала: Котояма (Kotoyama)
Режиссер: Такаянаги Сигэхито (Takayanagi Shigehito)
Описание:
Коконоцу Шикада — юный наследник семейного бизнеса: магазинчика сладостей в небольшой провинциальной деревушке, в отношении которого отец лелеет большие надежды, что тот займет его место. Однако парень отказывается от наследства. Шикада просто метит выше: он хочет стать известным сёдзё-мангакой! Сможет ли добиться парень своей мечты, пройдя все испытания юной любительницы-соблазнительницы сладостей, не забывая при этом своих верных друзей детства или же согласиться на такую сладкую судьбу?

Возрастное ограничение: 16+
Файл:
Язык озвучки: Русский (Anidub/AniLibria/Onibaku)
Субтитры: Русские, встроенные, полные+вспомогательные (YakuSub Studio)
Субтитры 2: Английские, встроенные, полные [Mori]
Качество видео: BDRip
Видео: mkv, AVC/x264., 8 бит, 1920x1080, ~8720 Кбит/сек, ~24 кадра/сек
Аудио 1: Flac, ~698 Кбит/сек, 48000 Гц, 2 канала, Японский (оригинальный, встроенный)
Аудио 2: AC3, 48000Hz, ~192 Kbps, 2ch, Русский (любительский, встроенный, двухголосый {муж/жен}) от Гамлетка Цезаревна, 9й Неизвестный (Anidub)
Аудио 3: AC3, 48000Hz, ~192 Kbps, 2ch, Русский (любительский, встроенный, двухголосый {муж/жен}) Mikrobelka, WhiteCroW (AniLibria)
Аудио 4: AC3, 48000Hz, ~192 Kbps, 2ch, Русский (любительский, встроенный, двухголосый {муж/жен}) Zendos, Ruri (Onibaku)
Аудио OP: OP в исполнении Cleo-chan (вшито во всех озвучках)

Скриншоты

Скриншоты:

Дополнительные скриншоты:

Эпизоды:

1.Umai-bou, Fries, And... / Юмаубу, Кусочки, и остальное
2.Kinako-bou, Namaiki Beer, And... / Кинакобу, Пиво "Намайки", и....
3.Buta-men, Kuru Kuru Bou Jelly, And... / Бут-люди, желе "Куру Куру Боу", и...
4.Figashi, Fugashi, And... / Фигаши, Фугаши, и прочее
5.Bottle Ramune, Baby-Star Ramen, And... / Бутылка Рамэна , Рамэн для "Звездных Детишек", и...
6.Super Himo Q, Ohajiki, and Sometimes Maken Gumi... / "Мраморное супер Химо Кью", и иногда делают жвачечки...
7.Summer Festival, Hotaru, And... / Веселый летний фестиваль, Хотару, и...
8.Super Scary Story Gum, Typhoon, And... / Жвачка "Супер страшная история", "Тайфун", и...
9.Wata-pachi, Lucky Choco-Droppings, And.../ Вишневая рисовая редька, яйцо-мороженное, и...
10.That`s Dagashi!/ Эти дешевые конфетки, ммм!
11.Cola Gum, Yo, And... / Кокакольский леденец, Ёоу, и...
12.I`m Gonna Eat It-Hi, Poem of Cherries, And.../ Я собираюсь съесть это-ну здравствуй, черешневая поэма, и...

Mediainfo:

Общее
Полное имя : L...\ Dagashi Kashi - 01 (BDRip 1920x1080x264 FLAC).mkv
Формат : Matroska
Версия формата : Version 4 / Version 2
Размер файла : 1,69 Гбайт
Продолжительность : 24 м. 23 с.
Режим общего битрейта : Переменный
Общий поток : 9921 Кбит/сек
Дата кодирования : UTC 2017-05-07 01:15:42
Программа кодирования : mkvmerge v11.0.0 ('Alive') 64bit
Библиотека кодирования : libebml v1.3.4 + libmatroska v1.4.5
Attachments : comments.txt / Rosario-BoldItalic.ttf / Rosario-Italic.ttf / Rosario-Regular.ttf / OpenSans-Semibold.ttf / Rosario-Bold.ttf
Видео
Идентификатор : 1
Формат : AVC
Формат/Информация : Advanced Video Codec
Профиль формата : High@L4
Параметр CABAC формата : Да
Параметр ReFrames формата : 4 кадра
Идентификатор кодека : V_MPEG4/ISO/AVC
Продолжительность : 24 м. 12 с.
Битрейт : 8720 Кбит/сек
Ширина : 1920 пикселей
Высота : 1080 пикселей
Соотношение сторон : 16:9
Режим частоты кадров : Постоянный
Частота кадров : 23,976 (24000/1001) кадра/сек
Цветовое пространство : YUV
Субдискретизация насыщенности : 4:2:0
Битовая глубина : 8 бит
Тип развёртки : Прогрессивная
Бит/(Пиксели*Кадры) : 0.175
Размер потока : 1,47 Гбайт (87%)
Библиотека кодирования : x264 core 148
Default : Да
Forced : Нет
Аудио #1
Идентификатор : 2
Формат : FLAC
Формат/Информация : Free Lossless Audio Codec
Идентификатор кодека : A_FLAC
Продолжительность : 24 м. 12 с.
Вид битрейта : Переменный
Битрейт : 698 Кбит/сек
Каналы : 2 канала
Расположение каналов : Front: L R
Частота : 48,0 КГц
Частота кадров : 10,417 кадров/сек (4608 spf)
Битовая глубина : 16 бит
Размер потока : 121 Мбайт (7%)
Библиотека кодирования : Lavf56.40.101
Язык : Japanese
Default : Нет
Forced : Нет
Аудио #2
Идентификатор : 3
Формат : AC-3
Формат/Информация : Audio Coding 3
Расширение режима : CM (complete main)
Параметр Endianness формата : Big
Идентификатор кодека : A_AC3
Продолжительность : 24 м. 9 с.
Вид битрейта : Постоянный
Битрейт : 192 Кбит/сек
Каналы : 2 канала
Расположение каналов : Front: L R
Частота : 48,0 КГц
Частота кадров : 31,250 кадров/сек (1536 spf)
Метод сжатия : С потерями
Размер потока : 33,2 Мбайт (2%)
Заголовок : [Anidub]
Язык : Russian
Default : Да
Forced : Нет
Аудио #3
Идентификатор : 4
Формат : AC-3
Формат/Информация : Audio Coding 3
Расширение режима : CM (complete main)
Параметр Endianness формата : Big
Идентификатор кодека : A_AC3
Продолжительность : 24 м. 23 с.
Вид битрейта : Постоянный
Битрейт : 192 Кбит/сек
Каналы : 2 канала
Расположение каналов : Front: L R
Частота : 48,0 КГц
Частота кадров : 31,250 кадров/сек (1536 spf)
Метод сжатия : С потерями
Размер потока : 33,5 Мбайт (2%)
Заголовок : [AniLibria]
Язык : Russian
Default : Нет
Forced : Нет
Аудио #4
Идентификатор : 5
Формат : AC-3
Формат/Информация : Audio Coding 3
Расширение режима : CM (complete main)
Параметр Endianness формата : Big
Идентификатор кодека : A_AC3
Продолжительность : 24 м. 12 с.
Вид битрейта : Постоянный
Битрейт : 192 Кбит/сек
Каналы : 2 канала
Расположение каналов : Front: L R
Частота : 48,0 КГц
Частота кадров : 31,250 кадров/сек (1536 spf)
Метод сжатия : С потерями
Размер потока : 33,2 Мбайт (2%)
Заголовок : [Onibaku]
Язык : Russian
Default : Нет
Forced : Нет
Текст #1
Идентификатор : 6
Формат : ASS
Идентификатор кодека : S_TEXT/ASS
Идентификатор кодека/Информация : Advanced Sub Station Alpha
Продолжительность : 24 м. 3 с.
Битрейт : 73 бит/сек
Count of elements : 109
Метод сжатия : Без потерь
Размер потока : 12,9 Кбайт (0%)
Заголовок : {inscriptions} [YakuSub Studio]
Язык : Russian
Default : Да
Forced : Нет
Текст #2
Идентификатор : 7
Формат : ASS
Идентификатор кодека : S_TEXT/ASS
Идентификатор кодека/Информация : Advanced Sub Station Alpha
Продолжительность : 24 м. 5 с.
Битрейт : 204 бит/сек
Count of elements : 465
Метод сжатия : Без потерь
Размер потока : 36,1 Кбайт (0%)
Заголовок : [YakuSub Studio]
Язык : Russian
Default : Нет
Forced : Нет
Текст #3
Идентификатор : 8
Формат : ASS
Идентификатор кодека : S_TEXT/ASS
Идентификатор кодека/Информация : Advanced Sub Station Alpha
Продолжительность : 22 м. 18 с.
Битрейт : 144 бит/сек
Count of elements : 404
Метод сжатия : Без потерь
Размер потока : 23,6 Кбайт (0%)
Заголовок : [Mori]
Язык : English
Default : Нет
Forced : Нет

Состав и структура раздачи:

В раздаче присутствуют следующие нанотехнологичные, высокого уровня механизмы пункты:
1). три озвучки на Ваш выбор: в каждой озвучке, начиная с седьмой серии (половина сериала), поется Русский OP; до шестой серии включительно проигрываются русские сабы-караоке в OP.
*по умолчанию, во всех сериях, стоит "Анидабовская" озвучка.
*озвучку можно отключить, или выбрать другую в меню плеера (MPC-HC).
2). пара субтитров, Английские (полные) и Русские (полные и вспомогательные [перевод надписей])—также на Ваш выбор.
*по умолчанию, во всех сериях, стоят вспомогательные субтитры, с вырезом сабов-караоке, начиная с седьмой серии—чтобы не путаться с Русским OP.
*субтитры можно отключить, или выбрать другие в меню плеера (MPC-HC).Bonus3)."менюшки" исходного Bue-ray со сканами дисков и другой прилагающейся инфы (артбуклетики, обложки и пр.)
4).OP и ED сериала, где в OP, кроме японского, присутствует и русское исполнение.
5).OST: русское и японское исполнение OP; японское исполнение ED.

[Цитировать]



Показать сообщения:    

Текущее время: 30-Май 05:02

Часовой пояс: UTC + 6


Вы не можете начинать темы
Вы не можете отвечать на сообщения
Вы не можете редактировать свои сообщения
Вы не можете удалять свои сообщения
Вы не можете голосовать в опросах
Вы не можете прикреплять файлы к сообщениям
Вы не можете скачивать файлы

!ВНИМАНИЕ!
Сайт не предоставляет электронные версии произведений, а занимается лишь коллекционированием и каталогизацией ссылок, присылаемых и публикуемых на форуме нашими читателями. Если вы являетесь правообладателем какого-либо представленного материала и не желаете, чтобы ссылка на него находилась в нашем каталоге, свяжитесь с нами, и мы незамедлительно удалим ее. Файлы для обмена на трекере предоставлены пользователями сайта, и администрация не несет ответственности за их содержание. Просьба не заливать файлы, защищенные авторскими правами, а также файлы нелегального содержания!