***Уважаемые пользователи и гости !!! Сайт переехал на новый домен Torrents-club.info. Просьба изменить ваши закладки! ***
 
[ Сегодня идет свободное скачивание без начисления Download ]


Статистика раздачи
Нет
 
   
 
 
 
 
-ウィッチブレイド / Witchblade / Клинок Ведьм- Информация:
Тип: TV
Жанр: Приключения, Фантастика, Драма
Продолжительность: 24 серии по ~25 мин.
Количество серий: 24 из 24
Дата выпуска: c 06.04.2006 по 21.09.2006
Производство: Gonzo
Режиссер: Охаси Ёсимицу
Перевод: Студия 2х2, Dusker, Тюлень
Язык субтитров: Русский
Описание:
После катастрофы, случившейся в Токио и затронувшей весь мир, Масане, находившаяся в эпицентре, очнулась без памяти и с маленьки ребенком на руках. С тех пор они живут как семья. Но нет постоянного дома, места работы, нет денег… С момента той же катастрофы у Масане на руке остался неснимаемый браслет — Клинок Ведьм, который пробуждает в ней силу и страсть к сражениям, а тут как раз какие-то роботы-маньяки в образе людей бродят по улицам…

Файл:
Контейнер: MKV
Качество видео: BDRip
Видео: H.265|HEVC, 1920х1080, 23.976 fps, 1,65 Mbps, CBR
Аудио: JPN AC3 2.0(2 ch), 48.0 KHz, 640 kbps, CBR
Аудио: RUS AC3 2.0(2 ch), 48.0 KHz, 320 kbps, CBR [Многоголосый закадровый]
Субтитры: RUS ASS [Полные]

Скриншоты

Скриншоты:

Эпизоды:

01. Начало
02. Сомнения
03. Вызов
04. Движение
05. Поиск
06. Изменение
07. Уход
08. Взаимность
09. Грусть
10. Взаимодействие
11. Опасность
12. Пленница
13. Разлука
14. Семья Рикко
15. Связи
16. Отдых
17. Замешательство
18. Поворот
19. Чувства
20. Просьба
21. Клятва
22. Рассказ
23. Хаос
24. Свет

Mediainfo:

General
Unique ID : 215216073919186891717158996366446266334 (0xA1E91BAE3D72B2538E40E12C128F87DE)
Complete name : Witchblade 01 [BDRip] [HEVC].mkv
Format : Matroska
Format version : Version 4 / Version 2
File size : 397 MiB
Duration : 23mn 42s
Overall bit rate : 2 340 Kbps
Encoded date : UTC 2015-04-06 19:23:28
Writing application : mkvmerge v7.8.0 ('River Man') 64bit built on Mar 27 2015 16:31:37
Writing library : libebml v1.3.1 + libmatroska v1.4.2
DURATION : 00:23:39.350000000
NUMBER_OF_FRAMES : 382
NUMBER_OF_BYTES : 30814
_STATISTICS_WRITING_APP : mkvmerge v7.8.0 ('River Man') 64bit built on Mar 27 2015 16:31:37
_STATISTICS_WRITING_DATE_UTC : 2015-04-06 19:23:28
_STATISTICS_TAGS : BPS DURATION NUMBER_OF_FRAMES NUMBER_OF_BYTES
Video
ID : 1
Format : HEVC
Format/Info : High Efficiency Video Coding
Format profile : Main@L4@Main
Codec ID : V_MPEGH/ISO/HEVC
Duration : 23mn 42s
Bit rate : 1 653 Kbps
Width : 1 920 pixels
Height : 1 080 pixels
Display aspect ratio : 16:9
Frame rate mode : Constant
Frame rate : 23.976 fps
Color space : YUV
Chroma subsampling : 4:2:0
Bit depth : 8 bits
Bits/(Pixel*Frame) : 0.033
Stream size : 280 MiB (71%)
Writing library : x265 1.5+9-7a42ca02d198:[Windows][GCC 4.9.1][64 bit]
Encoding settings : wpp / ctu=64 / max-tu-size=32 / tu-intra-depth=1 / tu-inter-depth=1 / me=1 / subme=2 / merange=57 / no-rect / no-amp / max-merge=2 / temporal-mvp / no-early-skip / no-fast-cbf / rdpenalty=0 / no-tskip / no-tskip-fast / strong-intra-smoothing / no-lossless / no-cu-lossless / no-constrained-intra / no-fast-intra / open-gop / no-temporal-layers / interlace=0 / keyint=250 / min-keyint=23 / scenecut=40 / rc-lookahead=20 / bframes=4 / bframe-bias=0 / b-adapt=2 / ref=3 / weightp / no-weightb / aq-mode=1 / aq-strength=1.00 / cbqpoffs=0 / crqpoffs=0 / rd=3 / psy-rd=0.30 / psy-rdoq=0.00 / signhide / lft / sao / no-sao-non-deblock / b-pyramid / cutree / rc=crf / crf=18.0 / qcomp=0.60 / qpmin=0 / qpmax=51 / qpstep=4 / ipratio=1.40 / pbratio=1.30
Default : Yes
Forced : No
DURATION : 00:23:42.048000000
NUMBER_OF_FRAMES : 44439
NUMBER_OF_BYTES : 113763840
_STATISTICS_WRITING_APP : mkvmerge v7.8.0 ('River Man') 64bit built on Mar 27 2015 16:31:37
_STATISTICS_WRITING_DATE_UTC : 2015-04-06 19:23:28
_STATISTICS_TAGS : BPS DURATION NUMBER_OF_FRAMES NUMBER_OF_BYTES
Audio
ID : 2
Format : AC-3
Format/Info : Audio Coding 3
Mode extension : CM (complete main)
Format settings, Endianness : Big
Codec ID : A_AC3
Duration : 23mn 42s
Bit rate mode : Constant
Bit rate : 640 Kbps
Channel(s) : 2 channels
Channel positions : Front: L R
Sampling rate : 48.0 KHz
Bit depth : 16 bits
Compression mode : Lossy
Stream size : 108 MiB (27%)
Language : Japanese
Default : Yes
Forced : No
Text
ID : 3
Format : ASS
Codec ID : S_TEXT/ASS
Codec ID/Info : Advanced Sub Station Alpha
Compression mode : Lossless
Language : Russian
Default : Yes
Forced : No

[Цитировать]



Показать сообщения:    

Текущее время: 30-Май 04:50

Часовой пояс: UTC + 6


Вы не можете начинать темы
Вы не можете отвечать на сообщения
Вы не можете редактировать свои сообщения
Вы не можете удалять свои сообщения
Вы не можете голосовать в опросах
Вы не можете прикреплять файлы к сообщениям
Вы не можете скачивать файлы

!ВНИМАНИЕ!
Сайт не предоставляет электронные версии произведений, а занимается лишь коллекционированием и каталогизацией ссылок, присылаемых и публикуемых на форуме нашими читателями. Если вы являетесь правообладателем какого-либо представленного материала и не желаете, чтобы ссылка на него находилась в нашем каталоге, свяжитесь с нами, и мы незамедлительно удалим ее. Файлы для обмена на трекере предоставлены пользователями сайта, и администрация не несет ответственности за их содержание. Просьба не заливать файлы, защищенные авторскими правами, а также файлы нелегального содержания!