***Уважаемые пользователи и гости !!! Сайт переехал на новый домен Torrents-club.info. Просьба изменить ваши закладки! ***
 
[ Сегодня идет свободное скачивание без начисления Download ]


Статистика раздачи
Скачал: [ 1 ]
 
   
 
 
 
 
Звёздные войны: Эпизод 4 – Новая надежда / Star Wars: Episode IV - A New Hope Информация о фильме
Название: Звёздные войны: Эпизод 4 – Новая надежда
Оригинальное название: Star Wars: Episode IV - A New Hope
Год выхода: 1977
Жанр: фантастика, приключения
Режиссер: Джордж Лукас
В ролях: Марк Хэмилл, Харрисон Форд, Кэрри Фишер, Питер Кушинг, Алек Гиннесс, Энтони Дэниелс, Кенни Бейкер, Питер Мейхью, Дэвид Праус, Фил Браун, Шила Фрейзер, Джек Пёрвис
О фильме:
Татуин. Планета-пустыня. Уже постаревший рыцарь Джедай Оби Ван Кеноби спасает молодого Люка Скайуокера, когда тот пытается отыскать пропавшего дроида. С этого момента Люк осознает свое истинное назначение: он один из рыцарей Джедай. В то время как гражданская война охватила галактику, а войска повстанцев ведут бои против сил злого Императора, к Люку и Оби Вану присоединяется отчаянный пилот-наемник Хан Соло, и в сопровождении двух дроидов, R2D2 и C-3PO, этот необычный отряд отправляется на поиски предводителя повстанцев - принцессы Леи. Героям предстоит отчаянная схватка с устрашающим Дартом Вейдером - правой рукой Императора и его секретным оружием - «Звездой Смерти».

Страна: США
Продолжительность: 02:04:44
Перевод: Дубляж (CPIG), оригинал
Файл
Кодек: HEVC x265 10bit
Качество: BDRip-HEVC 1080p
Видео: 1920x816, 23.976 кадр/сек, 5985 Кбит/сек, 10bit
Звук:
Аудио1: Русская, AC3 448 Кбит/сек, 6 канала(ов),16bit 48,0 КГц
Аудио2: English, AC3 448 Кбит/сек, 6 канала(ов),16bit 48,0 КГц
Субтитры: Русские форсированные, полные, English

Mediainfo

General
Unique ID : 226823195908859831895388074427518470143 (0xAAA48EFA6586139CB38C571D79A2C7FF)
Complete name : T:HDFILMSStar WarsStar Wars. Episode IV - A New Hope (1977) BDRip 1080p [HEVC] 10Bit.mkv
Format : Matroska
Format version : Version 4 / Version 2
File size : 6.00 GiB
Duration : 2 h 4 min
Overall bit rate : 6 884 kb/s
Movie name : Rip_by_Cthulhu
Encoded date : UTC 2017-09-27 18:34:37
Writing application : mkvmerge v13.0.0 ('The Juggler') 64bit
Writing library : libebml v1.3.4 + libmatroska v1.4.5
Cover : Yes
Attachments : cover4.jpg
Video
ID : 1
Format : HEVC
Format/Info : High Efficiency Video Coding
Format profile : Main 10@L4.1@High
Codec ID : V_MPEGH/ISO/HEVC
Duration : 2 h 4 min
Bit rate : 5 985 kb/s
Width : 1 920 pixels
Height : 816 pixels
Display aspect ratio : 2.35:1
Frame rate mode : Constant
Frame rate : 23.976 (24000/1001) FPS
Color space : YUV
Chroma subsampling : 4:2:0
Bit depth : 10 bits
Bits/(Pixel*Frame) : 0.159
Stream size : 5.22 GiB (87%)
Writing library : x265 2.5+17-f8ae7afc1f61:[Windows][GCC 7.1.0][64 bit] 10bit
Encoding settings : cpuid=1050111 / frame-threads=5 / numa-pools=4 / wpp / no-pmode / no-pme / no-psnr / no-ssim / log-level=3 / input-csp=1 / input-res=1920x816 / interlace=0 / total-frames=0 / level-idc=41 / high-tier=1 / uhd-bd=0 / ref=4 / no-allow-non-conformance / no-repeat-headers / annexb / no-aud / no-hrd / info / hash=0 / no-temporal-layers / open-gop / min-keyint=23 / keyint=250 / bframes=10 / b-adapt=2 / b-pyramid / bframe-bias=0 / rc-lookahead=40 / lookahead-slices=5 / scenecut=40 / no-intra-refresh / ctu=64 / min-cu-size=8 / no-rect / no-amp / max-tu-size=32 / tu-inter-depth=2 / tu-intra-depth=2 / limit-tu=0 / rdoq-level=0 / dynamic-rd=0.00 / no-ssim-rd / signhide / no-tskip / nr-intra=0 / nr-inter=0 / no-constrained-intra / strong-intra-smoothing / max-merge=3 / limit-refs=3 / no-limit-modes / me=3 / subme=7 / merange=32 / temporal-mvp / weightp / weightb / no-analyze-src-pics / deblock=-3:-3 / no-sao / no-sao-non-deblock / rd=3 / no-early-skip / rskip / no-fast-intra / no-tskip-fast / no-cu-lossless / no-b-intra / no-splitrd-skip / rdpenalty=0 / psy-rd=2.00 / psy-rdoq=0.00 / no-rd-refine / analysis-reuse-mode=0 / no-lossless / cbqpoffs=0 / crqpoffs=0 / rc=crf / crf=18.6 / qcomp=0.60 / qpstep=4 / stats-write=0 / stats-read=0 / vbv-maxrate=50000 / vbv-bufsize=35714 / vbv-init=0.9 / crf-max=30.0 / crf-min=0.0 / ipratio=1.40 / pbratio=1.30 / aq-mode=2 / aq-strength=0.90 / cutree / zone-count=0 / no-strict-cbr / qg-size=32 / no-rc-grain / qpmax=69 / qpmin=0 / no-const-vbv / sar=1 / overscan=0 / videoformat=5 / range=0 / colorprim=2 / transfer=2 / colormatrix=2 / chromaloc=0 / display-window=0 / max-cll=0,0 / min-luma=0 / max-luma=1023 / log2-max-poc-lsb=8 / vui-timing-info / vui-hrd-info / slices=1 / opt-qp-pps / opt-ref-list-length-pps / no-multi-pass-opt-rps / scenecut-bias=0.05 / no-opt-cu-delta-qp / no-aq-motion / no-hdr / no-hdr-opt / no-dhdr10-opt / analysis-reuse-level=5 / scale-factor=0 / refine-intra=0 / refine-inter=0 / refine-mv=0 / no-limit-sao / ctu-info=0
Default : Yes
Forced : No
Audio #1
ID : 2
Format : AC-3
Format/Info : Audio Coding 3
Format settings, Endianness : Big
Codec ID : A_AC3
Duration : 2 h 4 min
Bit rate mode : Constant
Bit rate : 448 kb/s
Channel(s) : 6 channels
Channel positions : Front: L C R, Side: L R, LFE
Sampling rate : 48.0 kHz
Frame rate : 31.250 FPS (1536 SPF)
Bit depth : 16 bits
Compression mode : Lossy
Stream size : 400 MiB (7%)
Language : Russian
Service kind : Complete Main
Default : Yes
Forced : No
Audio #2
ID : 3
Format : AC-3
Format/Info : Audio Coding 3
Format settings, Endianness : Big
Codec ID : A_AC3
Duration : 2 h 4 min
Bit rate mode : Constant
Bit rate : 448 kb/s
Channel(s) : 6 channels
Channel positions : Front: L C R, Side: L R, LFE
Sampling rate : 48.0 kHz
Frame rate : 31.250 FPS (1536 SPF)
Bit depth : 16 bits
Compression mode : Lossy
Stream size : 400 MiB (7%)
Language : English
Service kind : Complete Main
Default : No
Forced : No
Text #1
ID : 4
Format : PGS
Muxing mode : zlib
Codec ID : S_HDMV/PGS
Codec ID/Info : Picture based subtitle format used on BDs/HD-DVDs
Duration : 4 min 8 s
Bit rate : 33.7 kb/s
Count of elements : 60
Stream size : 1.00 MiB (0%)
Title : rus forced
Language : Russian
Default : Yes
Forced : Yes
Text #2
ID : 5
Format : UTF-8
Codec ID : S_TEXT/UTF8
Codec ID/Info : UTF-8 Plain Text
Duration : 2 h 4 min
Bit rate : 98 b/s
Count of elements : 1343
Stream size : 89.4 KiB (0%)
Title : rus full
Language : Russian
Default : No
Forced : No
Text #3
ID : 6
Format : UTF-8
Codec ID : S_TEXT/UTF8
Codec ID/Info : UTF-8 Plain Text
Duration : 2 h 1 min
Bit rate : 58 b/s
Count of elements : 1302
Stream size : 52.2 KiB (0%)
Language : English
Default : No
Forced : No
Menu
00:00:00.000 : en:Начало
00:00:21.021 : en:Новая надежда
00:01:53.404 : en:Имперская абордажная команда
00:04:52.792 : en:Миссия R2
00:07:28.281 : en:Вейдер и принцесса
00:08:54.867 : en:Затерянные в пустыне
00:11:21.389 : en:Земля джав
00:15:40.230 : en:Дроиды на продажу
00:19:40.178 : en:В гараже
00:23:33.203 : en:Семейный обед Ларсов
00:25:32.614 : en:Двойной закат
00:27:45.497 : en:Нападение песчаных людей
00:29:12.709 : en:Встреча со старым Беном
00:32:34.077 : en:"Световой меч твоего отца"
00:34:53.007 : en:Послание Леи
00:36:54.211 : en:"Звезда смерти"
00:39:05.634 : en:Сожженая ферма
00:41:42.291 : en:Решение Люка
00:42:31.548 : en:Космопорт Мос-Айсли
00:44:51.730 : en:Кантина
00:47:52.619 : en:Хан Соло
00:49:57.994 : en:Разговор с Гридо
00:51:13.695 : en:Цель "Звезды смерти"
00:52:40.740 : en:Джабба Хатт
00:54:12.332 : en:"Тысячелетний сокол"
00:56:59.916 : en:Судьба Алдераана
00:59:14.175 : en:Тренировка со световым мечом
01:03:10.828 : en:"Это не луна..."
01:06:16.472 : en:Потайной отсек
01:08:21.972 : en:Планирование побега
01:12:32.389 : en:Плененный вуки
01:14:12.656 : en:Спасение принцессы
01:17:13.712 : en:В мусоропроводе
01:19:09.327 : en:Мусорный пресс
01:21:29.384 : en:Стены сближаются
01:25:00.220 : en:Отключение луча захвата
01:27:02.091 : en:Обратно на корабль
01:29:56.182 : en:Оби-Ван против Вейдера
01:33:48.456 : en:Атака сид-истребителей
01:36:39.877 : en:"Они позволили нам уйти"
01:38:06.755 : en:Прибытие на Явин-4
01:39:37.513 : en:Инструктаж повстанцев
01:41:24.995 : en:Отлет Хана
01:42:37.401 : en:Люк и Биггс
01:45:02.629 : en:Атака на "Звезду смерти"
01:49:42.784 : en:Заход на цель
01:55:18.911 : en:"Примени силу, Люк"
01:57:47.393 : en:Приветствие героев
01:58:28.518 : en:Церемония награждения
02:00:14.498 : en:Финальные титры

Скриншоты

[Цитировать]

Топик был перенесен из форума Зарубежное кино (HD Video) в форум Классика зарубежного кино (HD Video)
Viktor1952



Показать сообщения:    

Текущее время: 19-Сен 06:02

Часовой пояс: UTC + 6


Вы не можете начинать темы
Вы не можете отвечать на сообщения
Вы не можете редактировать свои сообщения
Вы не можете удалять свои сообщения
Вы не можете голосовать в опросах
Вы не можете прикреплять файлы к сообщениям
Вы не можете скачивать файлы

!ВНИМАНИЕ!
Сайт не предоставляет электронные версии произведений, а занимается лишь коллекционированием и каталогизацией ссылок, присылаемых и публикуемых на форуме нашими читателями. Если вы являетесь правообладателем какого-либо представленного материала и не желаете, чтобы ссылка на него находилась в нашем каталоге, свяжитесь с нами, и мы незамедлительно удалим ее. Файлы для обмена на трекере предоставлены пользователями сайта, и администрация не несет ответственности за их содержание. Просьба не заливать файлы, защищенные авторскими правами, а также файлы нелегального содержания!