***Уважаемые пользователи и гости !!! Сайт переехал на новый домен Torrents-club.info. Просьба изменить ваши закладки! ***
 
[ Сегодня идет свободное скачивание без начисления Download ]


Статистика раздачи
Нет
 
   
 
 
 
 
Хаос Дитя
Chaos Child
Первый сезон- Информация:
Название: Хаос; Дитя
Оригинальное название: Chaos;Child
Год выхода: 2017
Жанр: Детектив, мистика, ужасы, школа
Режиссер: Дзимбо Масато
Художник: Курибаяси Дайки, Хатакэяма Юки, Цунадо Эйко, Сива Сиори
В ролях: Мацуока Ёсицугу, Уэсака Сумирэ, Бридкатт Сара Эми, Мимори Судзуко, Накая Саяка, Минасэ Инори
О фильме:
Прошло шесть лет с момента ужасающих событий "Нового поколения" - Серии загадочных убийств в Шибуе.
И вот, спустя время, люди как по графику в то же самое время начинают умирать вновь.
P.s. Нужно ли смотреть Chaos;Head чтобы понять, что происходит тут? Можно, но не обязательно.

World Art | MAL
Страна: Япония
Студия: Silver Link
Продолжительность: 00:24:40 серия
Язык: Русский, Японский
Перевод: Любительский (многоголосый, закадровый)
Файл:
Качество: WEBRip
Формат: MKV
Кодек: H.264
Аудио кодек: AAC
Видео: 1280x720, 23.976 fps, 1776 kbps
Аудио RUS: 48.0 kHz, AAC, 2 ch, 192 kbps - AniDub
Аудио JAP: 44.1 kHz, AAC, 2 ch, 128 kbps
Субтитры: Русские (встроенные полный перевод, ASS) - Nesitach & Stan WarHammer

Дополнительная информация

Oт:
Озвучивание: JAM, Nika Lenina, Trina_D
Перевод: Jeka
Тайминг и работа со звуком: Sheeze

Скриншоты

Список серий

01. Информационный силач идет по следу
02. Дело играет ими
03. Разговоры за кулисами фестиваля
04. На обратной стороне разговоров рождаются фантазии
05. Обитатели фантазий наступают
06. В погоне за суровым прошлым
07. Седьмая серия
08. Мысли, блуждающие в сплетениях света и тени
09. Место назначения блуждающих мыслей
10. Преследующие воспоминания прошлого
11. Его битва
12. Её мотивы

MediaInfo

General
Format : Matroska
Format version : Version 4 / Version 2
File size : 701 MiB
Duration : 47 min
Overall bit rate : 2 072 kb/s
Encoded date : UTC 2017-04-13 05:16:25
Writing application : mkvmerge v8.3.0 ('Over the Horizon') 64bit
Writing library : libebml v1.3.1 + libmatroska v1.4.2
Attachments : OpenSans-Semibold.ttf
Video
ID : 1
Format : AVC
Format/Info : Advanced Video Codec
Format profile : High@L4
Format settings, CABAC : Yes
Format settings, ReFrames : 6 frames
Codec ID : V_MPEG4/ISO/AVC
Duration : 47 min
Bit rate : 1 776 kb/s
Width : 1 280 pixels
Height : 720 pixels
Display aspect ratio : 16:9
Frame rate mode : Variable
Frame rate : 23.976 FPS
Color space : YUV
Chroma subsampling : 4:2:0
Bit depth : 8 bits
Scan type : Progressive
Bits/(Pixel*Frame) : 0.080
Stream size : 601 MiB (86%)
Writing library : x264 core 120 r2120 0c7dab9
Encoding settings : cabac=1 / ref=6 / deblock=1:1:1 / analyse=0x3:0x113 / me=umh / subme=8 / psy=1 / psy_rd=0.40:0.00 / mixed_ref=1 / me_range=16 / chroma_me=1 / trellis=1 / 8x8dct=1 / cqm=0 / deadzone=21,11 / fast_pskip=1 / chroma_qp_offset=-2 / threads=4 / sliced_threads=0 / nr=0 / decimate=1 / interlaced=0 / bluray_compat=0 / constrained_intra=0 / bframes=3 / b_pyramid=2 / b_adapt=2 / b_bias=0 / direct=3 / weightb=1 / open_gop=0 / weightp=2 / keyint=250 / keyint_min=23 / scenecut=40 / intra_refresh=0 / rc_lookahead=50 / rc=2pass / mbtree=1 / bitrate=1776 / ratetol=1.0 / qcomp=0.60 / qpmin=0 / qpmax=69 / qpstep=4 / cplxblur=20.0 / qblur=0.5 / vbv_maxrate=3552 / vbv_bufsize=8880 / nal_hrd=none / ip_ratio=1.40 / aq=1:0.60
Default : Yes
Forced : No
Audio #1
ID : 2
Format : AAC
Format/Info : Advanced Audio Codec
Format profile : LC
Codec ID : A_AAC
Duration : 47 min
Bit rate : 165 kb/s
Channel(s) : 2 channels
Channel positions : Front: L R
Sampling rate : 48.0 kHz
Frame rate : 46.875 FPS (1024 spf)
Compression mode : Lossy
Stream size : 56.0 MiB (8%)
Title : AniDub
Language : Russian
Default : Yes
Forced : No
Audio #2
ID : 3
Format : AAC
Format/Info : Advanced Audio Codec
Format profile : LC
Codec ID : A_AAC
Duration : 47 min
Bit rate : 128 kb/s
Channel(s) : 2 channels
Channel positions : Front: L R
Sampling rate : 44.1 kHz
Frame rate : 43.066 FPS (1024 spf)
Compression mode : Lossy
Stream size : 43.3 MiB (6%)
Title : Original
Language : Japanese
Default : No
Forced : No
Text
ID : 4
Format : ASS
Codec ID : S_TEXT/ASS
Codec ID/Info : Advanced Sub Station Alpha
Duration : 45 min
Bit rate : 254 b/s
Count of elements : 791
Compression mode : Lossless
Stream size : 85.4 KiB (0%)
Title : Полные субтитры
Language : Russian
Default : Yes
Forced : No

[Цитировать]



Показать сообщения:    

Текущее время: 07-Июн 05:50

Часовой пояс: UTC + 6


Вы не можете начинать темы
Вы не можете отвечать на сообщения
Вы не можете редактировать свои сообщения
Вы не можете удалять свои сообщения
Вы не можете голосовать в опросах
Вы не можете прикреплять файлы к сообщениям
Вы не можете скачивать файлы

!ВНИМАНИЕ!
Сайт не предоставляет электронные версии произведений, а занимается лишь коллекционированием и каталогизацией ссылок, присылаемых и публикуемых на форуме нашими читателями. Если вы являетесь правообладателем какого-либо представленного материала и не желаете, чтобы ссылка на него находилась в нашем каталоге, свяжитесь с нами, и мы незамедлительно удалим ее. Файлы для обмена на трекере предоставлены пользователями сайта, и администрация не несет ответственности за их содержание. Просьба не заливать файлы, защищенные авторскими правами, а также файлы нелегального содержания!