***Уважаемые пользователи и гости !!! Сайт переехал на новый домен Torrents-club.info. Просьба изменить ваши закладки! ***
 
[ Сегодня идет свободное скачивание без начисления Download ]


Статистика раздачи
Нет
 
   
 
 
 
 
Добро пожаловать в класс элиты
Youkoso Jitsuryoku Shijou Shugi no Kyoushitsu e
- Информация:
Название: Добро пожаловать в класс элиты
Оригинальное название: Youkoso Jitsuryoku Shijou Shugi no Kyoushitsu e
Год: 2017
Жанр: школа, романтика, драма, комедия
Страна: Япония
Продолжительность: 12х 00:24:00
Дата выпуска: c 12.07.2017 по 27.09.2017
Режиссер: Киси Сэйдзи
Автор оригинала / Сценарист: Кинугаса Сёго
Озвучивание: Ancord, Jade, Trina_D (Любительский многоголосый закадровый) Anidub
Тайминг и работа со звуком: Lonty
Перевод: FooBoo, Gerale, Buka63
Описание:
Старшая школа Кёдо Икусей - престижное учебное заведение с великолепными показателями, 100% учащихся поступают в университеты или находят работу. Учащимся позволено ходить с любыми прическами и приносить любые личные вещи. Кёдо Икусей - школа, похожая на рай, но правда состоит в том, что такой подход применим только к самым выдающимся ученикам.
Главный герой, Киётака Аянокодзи, учится в классе D, куда управление школы "сливает" студентов с низкой успеваемостью. Киётака был невнимателен на вступительном экзамене, поэтому и попал туда. После встречи с Судзуне Хорикитой и Кикуо Кусидой, двумя его одноклассницами, его положение начинает меняться.


Файл:
Кодек: mp4
Качество: HDTVRip 720p
Видео: MPEG4 Video (H264) 1280x720 23.976fps 1814kbps
Звук: RU AAC, 48000Hz, stereo ~192Кбит/сек

MediaInfo:


General
Complete name : C:\Users\user\Downloads\Youkoso_Jitsuryoku_Shijou_Shugi_no_Kyoushitsu_e\[AniDub]_Youkoso_Jitsuryoku_Shijou_Shugi_no_Kyoushitsu_e_[01]_[720p_x264_Aac]_[MVO].mp4
Format : MPEG-4
Format profile : Base Media
Codec ID : isom (isom)
File size : 351 MiB
Duration : 24 min 24 s
Overall bit rate mode : Variable
Overall bit rate : 2 010 kb/s
Encoded date : UTC 2017-07-18 22:24:14
Tagged date : UTC 2017-07-18 22:24:14
Writing application : Yamb 2.1.0.0 [http://yamb.unite-video.com]
Video
ID : 1
Format : AVC
Format/Info : Advanced Video Codec
Format profile : Main@L3.2
Format settings : CABAC / 3 Ref Frames
Format settings, CABAC : Yes
Format settings, RefFrames : 3 frames
Format settings, GOP : M=4, N=23
Codec ID : avc1
Codec ID/Info : Advanced Video Coding
Duration : 24 min 24 s
Bit rate : 1 814 kb/s
Maximum bit rate : 12.3 Mb/s
Width : 1 280 pixels
Height : 720 pixels
Display aspect ratio : 16:9
Frame rate mode : Constant
Frame rate : 23.976 (24000/1001) FPS
Standard : NTSC
Color space : YUV
Chroma subsampling : 4:2:0
Bit depth : 8 bits
Scan type : Progressive
Bits/(Pixel*Frame) : 0.082
Stream size : 317 MiB (90%)
Language : English
Encoded date : UTC 2017-07-19 22:09:08
Tagged date : UTC 2017-07-18 22:24:15
Color range : Limited
Color primaries : BT.709
Transfer characteristics : BT.709
Matrix coefficients : BT.709
Audio
ID : 2
Format : AAC
Format/Info : Advanced Audio Codec
Format profile : LC
Codec ID : mp4a-40-2
Duration : 24 min 24 s
Bit rate mode : Variable
Bit rate : 192 kb/s
Maximum bit rate : 196 kb/s
Channel(s) : 2 channels
Channel positions : Front: L R
Sampling rate : 48.0 kHz
Frame rate : 46.875 FPS (1024 SPF)
Compression mode : Lossy
Stream size : 33.5 MiB (10%)
Language : English
Encoded date : UTC 2017-07-18 22:24:14
Tagged date : UTC 2017-07-18 22:24:15

Скриншоты

[Цитировать]

Детектив... И как всегда на самом интересном месте...

[Цитировать]



Показать сообщения:    

Текущее время: 07-Июн 07:10

Часовой пояс: UTC + 6


Вы не можете начинать темы
Вы не можете отвечать на сообщения
Вы не можете редактировать свои сообщения
Вы не можете удалять свои сообщения
Вы не можете голосовать в опросах
Вы не можете прикреплять файлы к сообщениям
Вы не можете скачивать файлы

!ВНИМАНИЕ!
Сайт не предоставляет электронные версии произведений, а занимается лишь коллекционированием и каталогизацией ссылок, присылаемых и публикуемых на форуме нашими читателями. Если вы являетесь правообладателем какого-либо представленного материала и не желаете, чтобы ссылка на него находилась в нашем каталоге, свяжитесь с нами, и мы незамедлительно удалим ее. Файлы для обмена на трекере предоставлены пользователями сайта, и администрация не несет ответственности за их содержание. Просьба не заливать файлы, защищенные авторскими правами, а также файлы нелегального содержания!