***Уважаемые пользователи и гости !!! Сайт переехал на новый домен Torrents-club.info. Просьба изменить ваши закладки! ***
 
[ Сегодня идет свободное скачивание без начисления Download ]


Статистика раздачи
Нет
 
   
 
 
 
 
Я все жду, когда ты полюбишь меня
Suki ni Naru Sono Shunkan wo.: Kokuhaku Jikkou Iinkai
- Информация:
Название: Я все жду, когда ты полюбишь меня
Оригинальное название: Suki ni Naru Sono Shunkan wo.: Kokuhaku Jikkou Iinkai
Год выхода: 2016
Жанр: Романтика, Повседневность, Школа
Режиссер: Янагисава Тэцуя
О фильме:
Если в первом фильме, нам ведали о ситуацииях признаний троих героев/героинь, тогда тут нам демонстрируют отношения брата и сестры. Они и являются одними из основных героев предшествующего кинофильма с вкраплениями уже отлично известных нам персонажей.
Как и практически постоянно в вопросах признаний, самое ужасное - получить отказ. Вокруг данной трудности и возводятся два кинофильма. Лишь ежели в первом фильме все более-менее радужно за маленькими исключениями, то здесь приплели жанр драмы. Отчего и от чего же - глядите сами. И герои не делают честно бестолковых поступков, все их шаги абсолютно логичны и аргументированы, а глядеть на логичное аниме - чрезвычайно мило и занимательно. Как и в первом фильме, формируется чувство, что не хватило хронометража и остаток ситуации нам говорят в иллюстрациях под песню с титрам.

Shikimori
Страна: Япония
Студия: Qualia Animation
Продолжительность: (1 эп.), 63 мин.
Перевод: Любительский двухголосный
Озвучка: Kira & Alisa Царь
Файл:
Кодек: H264
Качество: HDTVRip
Видео: 1280x720; 1216 Kbps, 23.976fps
Звук: AAC 48000 Hz, 2.0, 192 kbps

MediaInfo:


General
Unique ID : 251374093420520041980329012873493590302 (0xBD1CE3AE283BC5A7BE5629E5758DB11E)
Complete name : C:\Users\user\Downloads\[SEKAI PROJECT] Suki ni Naru Sono Shunkan wo. Kokuhaku Jikkou Iinkai\[SEKAI PROJECT] Suki ni Naru Sono Shunkan wo. Kokuhaku Jikkou Iinkai [Kira & Alisa Царь].mkv
Format : Matroska
Format version : Version 4 / Version 2
File size : 625 MiB
Duration : 1 h 3 min
Overall bit rate : 1 384 kb/s
Encoded date : UTC 2017-06-26 14:07:49
Writing application : mkvmerge v7.8.0 ('River Man') 64bit built on Mar 27 2015 16:31:37
Writing library : libebml v1.3.1 + libmatroska v1.4.2
Video
ID : 1
Format : AVC
Format/Info : Advanced Video Codec
Format profile : High@L3.1
Format settings : CABAC / 4 Ref Frames
Format settings, CABAC : Yes
Format settings, RefFrames : 4 frames
Codec ID : V_MPEG4/ISO/AVC
Duration : 1 h 3 min
Bit rate : 1 216 kb/s
Width : 1 280 pixels
Height : 720 pixels
Display aspect ratio : 16:9
Frame rate mode : Constant
Frame rate : 23.810 FPS
Color space : YUV
Chroma subsampling : 4:2:0
Bit depth : 8 bits
Scan type : Progressive
Bits/(Pixel*Frame) : 0.055
Stream size : 549 MiB (88%)
Writing library : x264 core 129 r2230 1cffe9f
Encoding settings : cabac=1 / ref=1 / deblock=1:1:1 / analyse=0x3:0x3 / me=dia / subme=1 / psy=1 / psy_rd=0.40:0.00 / mixed_ref=0 / me_range=16 / chroma_me=1 / trellis=0 / 8x8dct=1 / cqm=0 / deadzone=21,11 / fast_pskip=1 / chroma_qp_offset=0 / threads=12 / lookahead_threads=2 / sliced_threads=0 / nr=0 / decimate=1 / interlaced=0 / bluray_compat=0 / constrained_intra=0 / bframes=5 / b_pyramid=2 / b_adapt=1 / b_bias=0 / direct=1 / weightb=1 / open_gop=0 / weightp=1 / keyint=250 / keyint_min=23 / scenecut=40 / intra_refresh=0 / rc=crf / mbtree=0 / crf=23.0 / qcomp=0.60 / qpmin=0 / qpmax=69 / qpstep=4 / ip_ratio=1.40 / pb_ratio=1.30 / aq=1:0.60
Default : Yes
Forced : No
Audio
ID : 2
Format : AAC
Format/Info : Advanced Audio Codec
Format profile : LC
Codec ID : A_AAC-2
Duration : 1 h 3 min
Bit rate : 165 kb/s
Channel(s) : 2 channels
Channel positions : Front: L R
Sampling rate : 48.0 kHz
Frame rate : 46.875 FPS (1024 SPF)
Compression mode : Lossy
Stream size : 74.7 MiB (12%)
Default : Yes
Forced : No

Дополнительная информация

Oт: SEKAI PROJECT

[Цитировать]



Показать сообщения:    

Текущее время: 30-Май 04:47

Часовой пояс: UTC + 6


Вы не можете начинать темы
Вы не можете отвечать на сообщения
Вы не можете редактировать свои сообщения
Вы не можете удалять свои сообщения
Вы не можете голосовать в опросах
Вы не можете прикреплять файлы к сообщениям
Вы не можете скачивать файлы

!ВНИМАНИЕ!
Сайт не предоставляет электронные версии произведений, а занимается лишь коллекционированием и каталогизацией ссылок, присылаемых и публикуемых на форуме нашими читателями. Если вы являетесь правообладателем какого-либо представленного материала и не желаете, чтобы ссылка на него находилась в нашем каталоге, свяжитесь с нами, и мы незамедлительно удалим ее. Файлы для обмена на трекере предоставлены пользователями сайта, и администрация не несет ответственности за их содержание. Просьба не заливать файлы, защищенные авторскими правами, а также файлы нелегального содержания!