***Уважаемые пользователи и гости !!! Сайт переехал на новый домен Torrents-club.info. Просьба изменить ваши закладки! ***
 
[ Сегодня идет свободное скачивание без начисления Download ]


Статистика раздачи
Нет
 
   
 
 
 
Планетарианка
Мечта одинокой звёздочки
Planetarian Chiisana Hoshi no Yume- Информация:
Название: Планетарианка: Мечта одинокой звёздочки
Оригинальное название: Planetarian: Chiisana Hoshi no Yume
Год выхода: 2016
Жанр: приключения, фантастика, постапокалипсис, драма
Режиссер: Цуда Наокацу, Накаяма Кацуити, Матитани Сюнсукэ, Матитани Сюнсукэ, Накаяма Кацуити
Художник: Идзуми Хиро, Такэда Юсукэ, Сугияма Юко, Нагасима Такаюки, Мики Митиё
В ролях: Судзуки Кэйко, Оно Дайсукэ
О фильме:
Сюжет разворачивается в заброшенном городе, покинутом людьми 30 лет тому назад после биологической бомбардировки. С тех пор человечество находится на грани вымирания, а в руинах города обитают лишь автономные военные роботы.
Однажды, в поисках провизии в город забредает человек по имени Кудзуя. Во время своих поисков он натыкается на военных роботов, и они начинают погоню за ним. В спешке юноша находит укрытие в старом здании универмага, на крыше которого он обнаруживает планетарий. Здесь он сталкивается с девушкой по имени Юмэми Хосино. Она — андроид и член персонала планетария. Чтобы показать своему посетителю увлекательную программу, Юмэми просит Кудзую отремонтировать сломанный проектор. Тогда у него начинает просыпаться давно забытый интерес к звездам. И Кудзуя начинает задумываться о небе, полном звезд, и судьбе своей планеты.

World Art | MAL
Страна: Япония
Студия: David Production
Продолжительность: 00:20:00
Язык: Русский, Японский
Перевод: Любительский (двухголосый, закадровый)
Файл:
Качество: WEBRip
Формат: MKV
Кодек: H.264
Аудио кодек: AAC
Видео: 1280x720, 23.976 fps, 1733 kbps
Аудио RUS: 48.0 kHz, AAC, 2 ch, 192 kbps - AniDub
Аудио JAP: 48.0 kHz, AAC, 2 ch, 128 kbps
Субтитры: Русские (встроенные полный перевод, ASS) - Shimizu & GMC

Дополнительная информация

От:
Озвучивание: Esther, Cuba77
Перевод: AleX_MytH & GMC

Скриншоты

Список серий

01. The Robot`s Bouquet
02. Repairing the Projector
03. Yumemi`s Projection
04. Drunk with Alcohol
05. Yumemi`s Wish

MediaInfo

General
Format : Matroska
Format version : Version 4 / Version 2
File size : 274 MiB
Duration : 18 min
Overall bit rate : 2 121 kb/s
Encoded date : UTC 2016-09-25 11:10:33
Writing application : mkvmerge v8.3.0 ('Over the Horizon') 64bit
Writing library : libebml v1.3.1 + libmatroska v1.4.2
Video
ID : 1
Format : AVC
Format/Info : Advanced Video Codec
Format profile : High@L4.1
Format settings, CABAC : Yes
Format settings, ReFrames : 5 frames
Codec ID : V_MPEG4/ISO/AVC
Duration : 18 min
Bit rate : 1 733 kb/s
Width : 1 280 pixels
Height : 720 pixels
Display aspect ratio : 16:9
Frame rate mode : Constant
Frame rate : 23.976 (24000/1001) FPS
Color space : YUV
Chroma subsampling : 4:2:0
Bit depth : 8 bits
Scan type : Progressive
Bits/(Pixel*Frame) : 0.078
Stream size : 224 MiB (82%)
Writing library : x264 core 148 r2638 7599210
Encoding settings : cabac=1 / ref=5 / deblock=1:-2:-2 / analyse=0x3:0x113 / me=umh / subme=9 / psy=1 / psy_rd=1.00:0.00 / mixed_ref=1 / me_range=32 / chroma_me=1 / trellis=1 / 8x8dct=1 / cqm=0 / deadzone=21,11 / fast_pskip=0 / chroma_qp_offset=-2 / threads=6 / lookahead_threads=1 / sliced_threads=0 / nr=0 / decimate=1 / interlaced=0 / bluray_compat=0 / constrained_intra=0 / bframes=5 / b_pyramid=2 / b_adapt=2 / b_bias=0 / direct=1 / weightb=1 / open_gop=0 / weightp=2 / keyint=240 / keyint_min=23 / scenecut=40 / intra_refresh=0 / rc_lookahead=40 / rc=crf / mbtree=1 / crf=19.0 / qcomp=0.60 / qpmin=0 / qpmax=69 / qpstep=4 / ip_ratio=1.40 / aq=1:1.00
Default : Yes
Forced : No
Color range : Limited
Color primaries : BT.709
Transfer characteristics : BT.709
Matrix coefficients : BT.709
Audio #1
ID : 2
Format : AAC
Format/Info : Advanced Audio Codec
Format profile : LC
Codec ID : A_AAC
Duration : 18 min
Bit rate : 192 kb/s
Channel(s) : 2 channels
Channel positions : Front: L R
Sampling rate : 48.0 kHz
Frame rate : 46.875 FPS (1024 spf)
Compression mode : Lossy
Stream size : 24.9 MiB (9%)
Title : AniDub
Language : Russian
Default : Yes
Forced : No
Audio #2
ID : 3
Format : AAC
Format/Info : Advanced Audio Codec
Format profile : LC
Codec ID : A_AAC
Duration : 18 min
Bit rate : 192 kb/s
Channel(s) : 2 channels
Channel positions : Front: L R
Sampling rate : 48.0 kHz
Frame rate : 46.875 FPS (1024 spf)
Compression mode : Lossy
Stream size : 24.8 MiB (9%)
Title : Original
Language : Japanese
Default : No
Forced : No
Text
ID : 4
Format : ASS
Codec ID : S_TEXT/ASS
Codec ID/Info : Advanced Sub Station Alpha
Duration : 18 min
Bit rate : 124 b/s
Count of elements : 235
Compression mode : Lossless
Stream size : 16.5 KiB (0%)
Title : Полные субтитры
Language : Russian
Default : Yes
Forced : No

[Цитировать]



Показать сообщения:    

Текущее время: 29-Май 10:54

Часовой пояс: UTC + 6


Вы не можете начинать темы
Вы не можете отвечать на сообщения
Вы не можете редактировать свои сообщения
Вы не можете удалять свои сообщения
Вы не можете голосовать в опросах
Вы не можете прикреплять файлы к сообщениям
Вы не можете скачивать файлы

!ВНИМАНИЕ!
Сайт не предоставляет электронные версии произведений, а занимается лишь коллекционированием и каталогизацией ссылок, присылаемых и публикуемых на форуме нашими читателями. Если вы являетесь правообладателем какого-либо представленного материала и не желаете, чтобы ссылка на него находилась в нашем каталоге, свяжитесь с нами, и мы незамедлительно удалим ее. Файлы для обмена на трекере предоставлены пользователями сайта, и администрация не несет ответственности за их содержание. Просьба не заливать файлы, защищенные авторскими правами, а также файлы нелегального содержания!