***Уважаемые пользователи и гости !!! Сайт переехал на новый домен Torrents-club.info. Просьба изменить ваши закладки! ***
 
[ Сегодня идет свободное скачивание без начисления Download ]


Статистика раздачи
Скачал: [ 2 ]
 
   
 
 
 
 
Изгой-один: Звёздные войны. Истории / Rogue One Информация о фильме
Название: Изгой-один: Звёздные войны. Истории
Оригинальное название: Rogue One
Год выхода: 2016
Жанр: фантастика, приключения
Режиссер: Гарет Эдвардс
В ролях: Фелисити Джонс, Диего Луна, Алан Тьюдик, Донни Йен, Цзян Вэнь, Бен Мендельсон, Гай Генри, Форест Уитакер, Риз Ахмед, Мадс Миккельсен
О фильме:
Сопротивление собирает отряд для выполнения особой миссии - надо выкрасть чертежи самого совершенного и смертоносного оружия Империи. Возглавляет бойцов неуправляемая и бесстрашная Джин Эрсо, у которой в этом самоубийственном задании есть и личные мотивы. Не всем суждено вернуться домой, но герои готовы к этому, ведь на кону судьба Галактики.

Страна: США, Великобритания
Студия: Allison Shearmur Productions, Black Hangar Studios, Lucasfilm Ltd., Walt Disney
Продолжительность: 02:13:57
Перевод: Дубляж (лицензия)
Файл
Кодек: HEVC x265 10bit
Качество: BDRip-HEVC 1080p
Видео: 1920x804, 23.976 кадр/сек, 5034 Кбит/сек, 10bit
Звук:
Аудио1: Русская, AC3 448 Кбит/сек, 6 канала(ов),16bit 48,0 КГц
Аудио2: English, AC3 448 Кбит/сек, 6 канала(ов),16bit 48,0 КГц
Субтитры: Русские, English

Mediainfo

General
Unique ID : 192023922642570302665162573013455514278 (0x9076765709DC80F0897464CC9A98AAA6)
Format : Matroska
Format version : Version 4 / Version 2
File size : 5.55 GiB
Duration : 2 h 13 min
Overall bit rate : 5 933 kb/s
Encoded date : UTC 2017-09-05 21:33:34
Writing application : mkvmerge v13.0.0 ('The Juggler') 64bit
Writing library : libebml v1.3.4 + libmatroska v1.4.5
Cover : Yes
Attachments : cover.jpg
Video
ID : 1
Format : HEVC
Format/Info : High Efficiency Video Coding
Format profile : Main 10@L4.1@High
Codec ID : V_MPEGH/ISO/HEVC
Duration : 2 h 13 min
Bit rate : 5 034 kb/s
Width : 1 920 pixels
Height : 804 pixels
Display aspect ratio : 2.40:1
Frame rate mode : Constant
Frame rate : 23.976 (24000/1001) FPS
Color space : YUV
Chroma subsampling : 4:2:0
Bit depth : 10 bits
Bits/(Pixel*Frame) : 0.136
Stream size : 4.71 GiB (85%)
Writing library : x265 2.5+12-fcd9154fa4e2:[Windows][GCC 7.1.0][64 bit] 10bit
Encoding settings : cpuid=1050111 / frame-threads=5 / numa-pools=4 / wpp / no-pmode / no-pme / no-psnr / no-ssim / log-level=3 / input-csp=1 / input-res=1920x804 / interlace=0 / total-frames=0 / level-idc=41 / high-tier=1 / uhd-bd=0 / ref=4 / no-allow-non-conformance / no-repeat-headers / annexb / no-aud / no-hrd / info / hash=0 / no-temporal-layers / open-gop / min-keyint=23 / keyint=240 / bframes=12 / b-adapt=2 / b-pyramid / bframe-bias=0 / rc-lookahead=40 / lookahead-slices=5 / scenecut=40 / no-intra-refresh / ctu=64 / min-cu-size=8 / no-rect / no-amp / max-tu-size=32 / tu-inter-depth=2 / tu-intra-depth=2 / limit-tu=0 / rdoq-level=0 / dynamic-rd=0.00 / no-ssim-rd / signhide / no-tskip / nr-intra=0 / nr-inter=0 / no-constrained-intra / strong-intra-smoothing / max-merge=3 / limit-refs=3 / no-limit-modes / me=2 / subme=4 / merange=32 / temporal-mvp / weightp / weightb / no-analyze-src-pics / deblock=-3:-3 / no-sao / no-sao-non-deblock / rd=3 / no-early-skip / rskip / no-fast-intra / no-tskip-fast / no-cu-lossless / no-b-intra / no-splitrd-skip / rdpenalty=0 / psy-rd=2.00 / psy-rdoq=0.00 / no-rd-refine / analysis-reuse-mode=0 / no-lossless / cbqpoffs=0 / crqpoffs=0 / rc=crf / crf=19.0 / qcomp=0.60 / qpstep=4 / stats-write=0 / stats-read=0 / vbv-maxrate=50000 / vbv-bufsize=35714 / vbv-init=0.9 / crf-max=30.0 / crf-min=0.0 / ipratio=1.40 / pbratio=1.30 / aq-mode=2 / aq-strength=1.00 / cutree / zone-count=0 / no-strict-cbr / qg-size=32 / no-rc-grain / qpmax=69 / qpmin=0 / no-const-vbv / sar=1 / overscan=0 / videoformat=5 / range=0 / colorprim=2 / transfer=2 / colormatrix=2 / chromaloc=0 / display-window=0 / max-cll=0,0 / min-luma=0 / max-luma=1023 / log2-max-poc-lsb=8 / vui-timing-info / vui-hrd-info / slices=1 / opt-qp-pps / opt-ref-list-length-pps / no-multi-pass-opt-rps / scenecut-bias=0.05 / no-opt-cu-delta-qp / no-aq-motion / no-hdr / no-hdr-opt / no-dhdr10-opt / analysis-reuse-level=5 / scale-factor=0 / refine-intra=0 / refine-inter=0 / refine-mv=0 / no-limit-sao / ctu-info=0
Language : Russian
Default : Yes
Forced : No
Audio #1
ID : 2
Format : AC-3
Format/Info : Audio Coding 3
Format settings, Endianness : Big
Codec ID : A_AC3
Duration : 2 h 13 min
Bit rate mode : Constant
Bit rate : 448 kb/s
Channel(s) : 6 channels
Channel positions : Front: L C R, Side: L R, LFE
Sampling rate : 48.0 kHz
Frame rate : 31.250 FPS (1536 SPF)
Bit depth : 16 bits
Compression mode : Lossy
Stream size : 429 MiB (8%)
Title : Дубляж
Language : Russian
Service kind : Complete Main
Default : Yes
Forced : No
Audio #2
ID : 3
Format : AC-3
Format/Info : Audio Coding 3
Format settings, Endianness : Big
Codec ID : A_AC3
Duration : 2 h 13 min
Bit rate mode : Constant
Bit rate : 448 kb/s
Channel(s) : 6 channels
Channel positions : Front: L C R, Side: L R, LFE
Sampling rate : 48.0 kHz
Frame rate : 31.250 FPS (1536 SPF)
Bit depth : 16 bits
Compression mode : Lossy
Stream size : 429 MiB (8%)
Language : English
Service kind : Complete Main
Default : No
Forced : No
Text #1
ID : 4
Format : UTF-8
Codec ID : S_TEXT/UTF8
Codec ID/Info : UTF-8 Plain Text
Duration : 1 h 23 min
Bit rate : 1 b/s
Count of elements : 19
Stream size : 642 Bytes (0%)
Default : Yes
Forced : No
Text #2
ID : 5
Format : UTF-8
Codec ID : S_TEXT/UTF8
Codec ID/Info : UTF-8 Plain Text
Duration : 2 h 5 min
Bit rate : 64 b/s
Count of elements : 1491
Stream size : 59.2 KiB (0%)
Language : Russian
Default : No
Forced : No
Text #3
ID : 6
Format : UTF-8
Codec ID : S_TEXT/UTF8
Codec ID/Info : UTF-8 Plain Text
Duration : 2 h 4 min
Bit rate : 46 b/s
Count of elements : 1568
Stream size : 42.2 KiB (0%)
Language : English
Default : No
Forced : No
Menu
00:00:00.000 : :"He's Come For Us"
00:02:34.654 : :Unfinished Business
00:07:46.466 : :Jyn In Prison
00:08:42.813 : :Ring Of Kafren
00:11:04.622 : :An Urgent Message
00:12:21.199 : :Wobani Prison Break
00:13:41.154 : :Rebel Interrogation
00:17:19.914 : :Mission Departure
00:20:09.542 : :Saw Gerrera
00:21:54.772 : :Krennic And Tarkin
00:23:47.092 : :Jyn's Dream
00:24:31.386 : :Scouting Jedha City
00:26:53.445 : :Bor Gullet
00:27:46.623 : :Guardians Of The Whills
00:30:37.294 : :Holy City Ambush
00:33:53.406 : :"Let Them Pass"
00:37:11.271 : :Saw's Catacombs
00:42:30.089 : :Galen's Message
00:47:16.125 : :Jedha Escape
00:51:04.144 : :Tarkin Commands
00:52:23.724 : :Race To Eadu
00:55:53.266 : :Eadu Crash
00:59:48.251 : :Scouting Eadu
01:02:07.807 : :Krennic And Galen
01:05:25.505 : :Attack On Eadu
01:10:24.095 : :Eadu Aftermath
01:12:49.532 : :Mustafar
01:16:28.459 : :Jyn Before The Council
01:19:04.323 : :"May The Force Be With Us"
01:21:55.160 : :Rogue One Launches
01:23:25.667 : :Scarif Gate
01:25:58.987 : :10 Men Like 100
01:27:34.958 : :Imperial Inspection
01:29:57.308 : :Ground Forces
01:31:53.841 : :The Battle Begins
01:34:18.736 : :Scrambling The Rebel Fleet
01:36:07.512 : :Sowing Confusion
01:37:48.237 : :Rebel Reinforcements
01:40:27.605 : :Beach Battle
01:42:44.074 : :Master Switch
01:45:26.779 : :Stardust
01:47:55.010 : :Data Vault
01:50:31.416 : :Sacrifices
01:53:28.885 : :"We Have The Plans"
01:55:46.272 : :Final Confrontation
01:59:23.448 : :Transmission Received
02:01:11.347 : :Fire When Ready
02:03:15.596 : :Hope
02:05:42.118 : :End Credits

Скриншоты

[Цитировать]



Показать сообщения:    

Текущее время: 07-Июн 07:09

Часовой пояс: UTC + 6


Вы не можете начинать темы
Вы не можете отвечать на сообщения
Вы не можете редактировать свои сообщения
Вы не можете удалять свои сообщения
Вы не можете голосовать в опросах
Вы не можете прикреплять файлы к сообщениям
Вы не можете скачивать файлы

!ВНИМАНИЕ!
Сайт не предоставляет электронные версии произведений, а занимается лишь коллекционированием и каталогизацией ссылок, присылаемых и публикуемых на форуме нашими читателями. Если вы являетесь правообладателем какого-либо представленного материала и не желаете, чтобы ссылка на него находилась в нашем каталоге, свяжитесь с нами, и мы незамедлительно удалим ее. Файлы для обмена на трекере предоставлены пользователями сайта, и администрация не несет ответственности за их содержание. Просьба не заливать файлы, защищенные авторскими правами, а также файлы нелегального содержания!