***Уважаемые пользователи и гости !!! Сайт переехал на новый домен Torrents-club.info. Просьба изменить ваши закладки! ***
 
[ Сегодня идет свободное скачивание без начисления Download ]


Статистика раздачи
Нет
 
   
 
 
 
 
Хэллоуин 3: Сезон ведьм / Halloween III: Season of the Witch Информация о фильме
Название: Хэллоуин 3: Сезон ведьм
Оригинальное название: Halloween III: Season of the Witch
Год выхода: 1982
Жанр: ужасы, фантастика, детектив
Режиссер: Томми Ли Уоллес
В ролях: Том Аткинс, Стейси Нелкин, Дэн О’Херлихи, Майкл Карри, Ральф Стрейт, Джэдин Барбор, Брэд Шактер, Гэрн Стефенс, Нэнси Кайс, Джонатан Терри
Описание: Безумный конструктор игрушек решает принести в жертву на Хэллоуин миллионы детей разом и готовит партию масок «Тыквоголового», которые мистическим образом срабатывают в день Праздника Всех Святых.

Страна: США
Продолжительность: 01:38:02
Перевод 1: Авторский (одноголосый, закадровый) Гаврилов
Перевод 2: Авторский (одноголосый, закадровый) Петр Карцев
Перевод 3: Любительский (одноголосый, закадровый)
Субтитры: английские
Файл
Качество: BDRemux 1080р
Видео: MPEG-4 AVC Video / 29448 kbps / 1080p / 23.976 fps / 16:9 / High Profile 4.1
Аудио 1: Dolby Digital Audio Russian 2.0 / 48 kHz / 192 kbps | Гаврилов
Аудио 2: Dolby Digital Audio Russian 2.0 / 48 kHz / 192 kbps | Карцев
Аудио 3: Dolby Digital Audio Russian 2.0 / 48 kHz / 192 kbps | VO
Аудио 4: DTS-HD Master Audio English / 2.0 / 48 kHz / 1685 kbps / 24-bit (DTS Core: 2.0 / 48 kHz / 1509 kbps / 24-bit)

Скриншоты

MediaInfo

General
Unique ID : 210872924363134052714294578251410371281 (0x9EA4A5DFFEC97FBF8561D40C3546F2D1)
Complete name : Halloween.3.1982.1080p.Bluray.US.AVC.Remux.mkv
Format : Matroska
Format version : Version 2
File size : 21.7 GiB
Duration : 1h 38mn
Overall bit rate mode : Variable
Overall bit rate : 31.7 Mbps
Movie name : Halloween.3.1982.1080p.Bluray.US.AVC.Remux
Encoded date : UTC 2012-10-31 17:12:42
Writing application : mkvmerge v4.9.1 ('Ich will') сборка от Jul 11 2011 23:53:15
Writing library : libebml v1.2.1 + libmatroska v1.1.1
Video
ID : 1
Format : AVC
Format/Info : Advanced Video Codec
Format profile : High@L4.1
Format settings, CABAC : Yes
Format settings, ReFrames : 3 frames
Format settings, GOP : M=3, N=12
Codec ID : V_MPEG4/ISO/AVC
Duration : 1h 38mn
Bit rate mode : Variable
Bit rate : 28.9 Mbps
Maximum bit rate : 35.0 Mbps
Width : 1 920 pixels
Height : 1 080 pixels
Display aspect ratio : 16:9
Frame rate : 23.976 fps
Standard : NTSC
Color space : YUV
Chroma subsampling : 4:2:0
Bit depth : 8 bits
Scan type : Progressive
Bits/(Pixel*Frame) : 0.582
Stream size : 19.8 GiB (91%)
Title : hdclub
Default : Yes
Forced : No
Color primaries : BT.709-5, BT.1361, IEC 61966-2-4, SMPTE RP177
Transfer characteristics : BT.709-5, BT.1361
Matrix coefficients : BT.709-5, BT.1361, IEC 61966-2-4 709, SMPTE RP177
Audio #1
ID : 2
Format : AC-3
Format/Info : Audio Coding 3
Mode extension : CM (complete main)
Format settings, Endianness : Big
Codec ID : A_AC3
Duration : 1h 38mn
Bit rate mode : Constant
Bit rate : 192 Kbps
Channel(s) : 2 channels
Channel positions : Front: L R
Sampling rate : 48.0 KHz
Bit depth : 16 bits
Compression mode : Lossy
Stream size : 135 MiB (1%)
Title : Андрей Гаврилов
Language : Russian
Default : Yes
Forced : No
Audio #2
ID : 3
Format : AC-3
Format/Info : Audio Coding 3
Mode extension : CM (complete main)
Format settings, Endianness : Big
Codec ID : A_AC3
Duration : 1h 38mn
Bit rate mode : Constant
Bit rate : 192 Kbps
Channel(s) : 2 channels
Channel positions : Front: L R
Sampling rate : 48.0 KHz
Bit depth : 16 bits
Compression mode : Lossy
Stream size : 135 MiB (1%)
Title : Петр Карцев
Language : Russian
Default : No
Forced : No
Audio #3
ID : 4
Format : AC-3
Format/Info : Audio Coding 3
Mode extension : CM (complete main)
Format settings, Endianness : Big
Codec ID : A_AC3
Duration : 1h 38mn
Bit rate mode : Constant
Bit rate : 192 Kbps
Channel(s) : 2 channels
Channel positions : Front: L R
Sampling rate : 48.0 KHz
Bit depth : 16 bits
Compression mode : Lossy
Stream size : 135 MiB (1%)
Language : Russian
Default : No
Forced : No
Audio #4
ID : 5
Format : DTS
Format/Info : Digital Theater Systems
Format profile : MA / Core
Codec ID : A_DTS
Duration : 1h 38mn
Bit rate mode : Variable
Bit rate : 1 558 Kbps / 1 510 Kbps
Channel(s) : 2 channels
Channel positions : Front: L R
Sampling rate : 48.0 KHz
Bit depth : 24 bits
Compression mode : Lossless / Lossy
Language : English
Default : No
Forced : No
Text
ID : 6
Format : UTF-8
Codec ID : S_TEXT/UTF8
Codec ID/Info : UTF-8 Plain Text
Language : English
Default : No
Forced : No
Menu
00:00:01.001 : en:00:00:01.001
00:06:27.387 : en:00:06:27.387
00:09:01.166 : en:00:09:01.166
00:16:15.600 : en:00:16:15.600
00:20:48.247 : en:00:20:48.247
00:25:55.554 : en:00:25:55.554
00:31:27.886 : en:00:31:27.886
00:36:25.183 : en:00:36:25.183
00:41:09.467 : en:00:41:09.467
00:45:29.352 : en:00:45:29.352
00:49:39.602 : en:00:49:39.602
00:54:23.260 : en:00:54:23.260
01:03:06.408 : en:01:03:06.408
01:11:12.268 : en:01:11:12.268
01:15:17.513 : en:01:15:17.513
01:21:08.864 : en:01:21:08.864
01:28:22.923 : en:01:28:22.923
01:33:13.213 : en:01:33:13.213

[Цитировать]



Показать сообщения:    

Текущее время: 05-Июн 05:30

Часовой пояс: UTC + 6


Вы не можете начинать темы
Вы не можете отвечать на сообщения
Вы не можете редактировать свои сообщения
Вы не можете удалять свои сообщения
Вы не можете голосовать в опросах
Вы не можете прикреплять файлы к сообщениям
Вы не можете скачивать файлы

!ВНИМАНИЕ!
Сайт не предоставляет электронные версии произведений, а занимается лишь коллекционированием и каталогизацией ссылок, присылаемых и публикуемых на форуме нашими читателями. Если вы являетесь правообладателем какого-либо представленного материала и не желаете, чтобы ссылка на него находилась в нашем каталоге, свяжитесь с нами, и мы незамедлительно удалим ее. Файлы для обмена на трекере предоставлены пользователями сайта, и администрация не несет ответственности за их содержание. Просьба не заливать файлы, защищенные авторскими правами, а также файлы нелегального содержания!