***Уважаемые пользователи и гости !!! Сайт переехал на новый домен Torrents-club.info. Просьба изменить ваши закладки! ***
 
[ Сегодня идет свободное скачивание без начисления Download ]


Статистика раздачи
Нет
 
   
 
 
 
 
Стюарт Литтл / Stuart Little Информация о фильме
Название: Стюарт Литтл
Оригинальное название: Stuart Little
Жанр: Фэнтези, комедия, приключения, семейный
Режиссер: Роб Минкофф
В ролях: Майкл Дж. Фокс, Джина Дэвис, Хью Лори, Джонатан Липники, Натан Лейн, Чазз Пальминтери, Стив Зан, Джим Дуган, Дэвид Алан Грир, Бруно Кёрби
О фильме:
Когда Джордж попросил своих родителей усыновить ему маленького братишку, чета Литтл восприняла его просьбу слишком буквально. И в один прекрасный день в их большом доме появился… крошечный мышонок Стюарт, который одет в модный костюмчик и умеет разговаривать. С этого момента начинаются непредсказуемые, веселые, а иногда и опасные приключения Стюарта Литтла. За малышом охотятся все коты в округе, его похищают мошенники, и чтобы вернуться домой, новому члену семьи придется стать настоящим героем.

Страна: Германия, США
Студия: Columbia Pictures
Продолжительность: 01:24:36
Перевод: Дубляж
Файл
Кодек: H.264
Качество: BDRip-AVC
Видео: 1056х568 (1.85:1), 2081 Kbps, 23.976 fps
Звук: Русский (AC-3, 6ch, 384 kbps)
Субтитры: Русские, английские

MI

x264 [info]: frame I:1085 Avg QP:17.40 size: 87829
x264 [info]: frame P:28909 Avg QP:19.39 size: 26107
x264 [info]: frame B:91711 Avg QP:22.11 size: 5133
x264 [info]: consecutive B-frames: 2.4% 4.8% 15.4% 18.4% 16.1% 34.4% 5.7% 1.6% 1.2%
x264 [total]: encoded 121705 frames, 2.32 fps, 2081.49 kb/s
General
Unique ID : 236058840107414193847828974098321234493 (0xB1974764AE50170F9CD08785E2EBDA3D)
Complete name : G:МУЛЬТЫСТЮАРТ ЛИТТЛ--Стюарт Литтл.1999.x264.BDRip-AVC.mkv
Format : Matroska
Format version : Version 4 / Version 2
File size : 1.46 GiB
Duration : 1 h 24 min
Overall bit rate : 2 468 kb/s
Movie name : Стюарт Литтл / Stuart Little (1999) - #LORDKILL#
Encoded date : UTC 2017-10-23 14:10:13
Writing application : mkvmerge v9.5.0 ('Quiet Fire') 64bit
Writing library : libebml v1.3.4 + libmatroska v1.4.5
Cover : Yes
Attachments : cover.jpg
Video
ID : 1
Format : AVC
Format/Info : Advanced Video Codec
Format profile : High@L4.1
Format settings, CABAC : Yes
Format settings, ReFrames : 11 frames
Codec ID : V_MPEG4/ISO/AVC
Duration : 1 h 24 min
Bit rate : 2 081 kb/s
Width : 1 056 pixels
Height : 568 pixels
Display aspect ratio : 1.85:1
Frame rate mode : Constant
Frame rate : 23.976 (24000/1001) FPS
Color space : YUV
Chroma subsampling : 4:2:0
Bit depth : 8 bits
Scan type : Progressive
Bits/(Pixel*Frame) : 0.145
Stream size : 1.23 GiB (84%)
Writing library : x264 core 146 r2538 121396c
Encoding settings : cabac=1 / ref=11 / deblock=1:-3:-3 / analyse=0x3:0x113 / me=umh / subme=11 / psy=1 / psy_rd=1.00:0.10 / mixed_ref=1 / me_range=64 / chroma_me=1 / trellis=2 / 8x8dct=1 / cqm=0 / deadzone=21,11 / fast_pskip=0 / chroma_qp_offset=-3 / threads=12 / lookahead_threads=2 / sliced_threads=0 / nr=0 / decimate=1 / interlaced=0 / bluray_compat=0 / constrained_intra=0 / bframes=8 / b_pyramid=2 / b_adapt=2 / b_bias=0 / direct=1 / weightb=1 / open_gop=0 / weightp=2 / keyint=240 / keyint_min=23 / scenecut=40 / intra_refresh=0 / rc=crf / mbtree=0 / crf=19.5 / qcomp=0.60 / qpmin=0 / qpmax=69 / qpstep=4 / ip_ratio=1.40 / pb_ratio=1.30 / aq=1:1.00
Language : English
Default : Yes
Forced : No
Audio
ID : 2
Format : AC-3
Format/Info : Audio Coding 3
Mode extension : CM (complete main)
Format settings, Endianness : Big
Codec ID : A_AC3
Duration : 1 h 24 min
Bit rate mode : Constant
Bit rate : 384 kb/s
Channel(s) : 6 channels
Channel positions : Front: L C R, Side: L R, LFE
Sampling rate : 48.0 kHz
Frame rate : 31.250 FPS (1536 spf)
Bit depth : 16 bits
Compression mode : Lossy
Stream size : 232 MiB (16%)
Title : Дубляж
Language : Russian
Default : Yes
Forced : No
Text #1
ID : 3
Format : UTF-8
Codec ID : S_TEXT/UTF8
Codec ID/Info : UTF-8 Plain Text
Duration : 1 h 17 min
Bit rate : 98 b/s
Count of elements : 1118
Stream size : 56.2 KiB (0%)
Language : Russian
Default : No
Forced : No
Text #2
ID : 4
Format : UTF-8
Codec ID : S_TEXT/UTF8
Codec ID/Info : UTF-8 Plain Text
Duration : 1 h 17 min
Bit rate : 64 b/s
Count of elements : 1112
Stream size : 36.9 KiB (0%)
Language : English
Default : No
Forced : No
Menu
00:00:00.000 : en:00:00:00.000
00:06:37.314 : en:00:06:37.314
00:10:36.469 : en:00:10:36.469
00:16:26.611 : en:00:16:26.611
00:21:02.052 : en:00:21:02.052
00:27:26.603 : en:00:27:26.603
00:31:27.636 : en:00:31:27.636
00:37:06.182 : en:00:37:06.182
00:42:30.089 : en:00:42:30.089
00:45:26.140 : en:00:45:26.140
00:51:05.521 : en:00:51:05.521
00:55:42.798 : en:00:55:42.798
00:59:59.805 : en:00:59:59.805
01:04:10.472 : en:01:04:10.472
01:09:52.772 : en:01:09:52.772
01:13:29.614 : en:01:13:29.614

Скриншоты

[Цитировать]



Показать сообщения:    

Текущее время: 07-Июн 11:00

Часовой пояс: UTC + 6


Вы не можете начинать темы
Вы не можете отвечать на сообщения
Вы не можете редактировать свои сообщения
Вы не можете удалять свои сообщения
Вы не можете голосовать в опросах
Вы не можете прикреплять файлы к сообщениям
Вы не можете скачивать файлы

!ВНИМАНИЕ!
Сайт не предоставляет электронные версии произведений, а занимается лишь коллекционированием и каталогизацией ссылок, присылаемых и публикуемых на форуме нашими читателями. Если вы являетесь правообладателем какого-либо представленного материала и не желаете, чтобы ссылка на него находилась в нашем каталоге, свяжитесь с нами, и мы незамедлительно удалим ее. Файлы для обмена на трекере предоставлены пользователями сайта, и администрация не несет ответственности за их содержание. Просьба не заливать файлы, защищенные авторскими правами, а также файлы нелегального содержания!