***Уважаемые пользователи и гости !!! Сайт переехал на новый домен Torrents-club.info. Просьба изменить ваши закладки! ***
 
[ Сегодня идет свободное скачивание без начисления Download ]


Статистика раздачи
Нет
 
   
 
 
 
 
Только правда
The Whole Truth
- Информация:
Год: 2016
Производство: США / Atlas Entertainment, Likely Story, Merced Media Partners, Palm-Star Entertainment, Whole Truth Productions
Жанр: Триллер, Драма
Режиссер: Кортни Хант
Актеры: Киану Ривз, Рене Зеллвегер, Гугу Эмбата-Ро, Шон Бриджерс, Джеймс Белуши, Кеннет Чои, Гэбриел Бассо, Кристофер Берри, Томас Мерфи, Лара Грайс
Описание:
Судебный процесс, подростка обвиняют в убийстве отца, который грубо обращался со своей супругой. На защиту встает семейный юрист, который умело выполняет свое дело, но в итоге выясняется, что все совершенно не так как кажется...

Рейтинг MPAA: R (лицам до 17 лет обязательно присутствие взрослого)
Продолжительность: 01:33:34
Перевод: Любительский многоголосый закадровый (Студия Пиратского дубляжа)
Файл:
Качество видео: BDRip
Видео: HEVC/H.265, 1920x800, ~4833 Kbps
Аудио 1: AC3, 6 ch, 640 Kbps (Русский)
Аудио 2: DTS, 6 ch, 1509 Kbps (Английский)
Субтитры: Английские

Mediainfo:

Общее
Уникальный идентификатор : 228630474148516409914205134011314130462 (0xAC00A0ACC43AF65DBF6B219D5862CE1E)
Полное имя : E:\Torrents\Только правда (The Whole Truth).mkv
Формат : Matroska
Версия формата : Version 4 / Version 2
Размер файла : 4,56 Гбайт
Продолжительность : 1 ч. 33 м.
Общий поток : 6985 Кбит/сек
Название фильма : Только правда / The Whole Truth
Дата кодирования : UTC 2017-10-10 08:45:22
Программа кодирования : mkvmerge v15.0.0 ('Duel with the Devil') 64-bit
Библиотека кодирования : libebml v1.3.5 + libmatroska v1.4.5
Авторское право : Encoded by Goor80
Обложка : Yes
Attachments : cover.jpg
Released by : Buba5473 for NNM-Club
Видео
Идентификатор : 1
Формат : HEVC
Формат/Информация : High Efficiency Video Coding
Профиль формата : Main 10@L4@Main
Идентификатор кодека : V_MPEGH/ISO/HEVC
Продолжительность : 1 ч. 33 м.
Битрейт : 4833 Кбит/сек
Ширина : 1920 пикселей
Высота : 800 пикселей
Соотношение сторон : 2,40:1
Режим частоты кадров : Постоянный
Частота кадров : 23,976 (24000/1001) кадра/сек
Цветовое пространство : YUV
Субдискретизация насыщенности : 4:2:0
Битовая глубина : 10 бит
Бит/(Пиксели*Кадры) : 0.131
Размер потока : 3,16 Гбайт (69%)
Default : Да
Forced : Нет
Аудио #1
Идентификатор : 2
Формат : AC-3
Формат/Информация : Audio Coding 3
Параметр Endianness формата : Big
Идентификатор кодека : A_AC3
Продолжительность : 1 ч. 33 м.
Вид битрейта : Постоянный
Битрейт : 640 Кбит/сек
Каналы : 6 каналов
Расположение каналов : Front: L C R, Side: L R, LFE
Частота : 48,0 КГц
Частота кадров : 31,250 кадров/сек (1536 SPF)
Битовая глубина : 16 бит
Метод сжатия : С потерями
Размер потока : 428 Мбайт (9%)
Заголовок : Перевод: Любительский многоголосый (закадровый) | Студия пиратского дубляжа
Язык : Russian
ServiceKind/String : Complete Main
Default : Да
Forced : Нет
Аудио #2
Идентификатор : 3
Формат : DTS
Формат/Информация : Digital Theater Systems
Режим : 16
Параметр Endianness формата : Big
Идентификатор кодека : A_DTS
Продолжительность : 1 ч. 33 м.
Вид битрейта : Постоянный
Битрейт : 1509 Кбит/сек
Каналы : 6 каналов
Расположение каналов : Front: L C R, Side: L R, LFE
Частота : 48,0 КГц
Частота кадров : 93,750 кадра/сек (512 SPF)
Битовая глубина : 24 бит
Метод сжатия : С потерями
Размер потока : 1010 Мбайт (22%)
Язык : English
Default : Нет
Forced : Нет
Текст
Идентификатор : 4
Формат : UTF-8
Идентификатор кодека : S_TEXT/UTF8
Идентификатор кодека/Информация : UTF-8 Plain Text
Продолжительность : 1 ч. 26 м.
Битрейт : 62 бит/сек
ElementCount : 1247
Размер потока : 39,6 Кбайт (0%)
Язык : English
Default : Нет
Forced : Нет
Меню
00:00:00.000 : en:Chapter 01
00:11:46.038 : en:Chapter 02
00:21:55.605 : en:Chapter 03
00:35:39.178 : en:Chapter 04
00:47:48.115 : en:Chapter 05
00:58:18.661 : en:Chapter 06
01:10:01.655 : en:Chapter 07
01:21:45.108 : en:Chapter 08
XMP
Xmp.video.FileName : E:\Torrents\Только правда (The Whole Truth).mkv
Xmp.video.FileSize : -9.53674e-007
Xmp.video.MimeType : video/matroska
Xmp.video.EBMLVersion : 1
Xmp.video.EBMLReadVersion : 1
Xmp.video.DocType : matroska
Xmp.video.DocTypeVersion : 4
Xmp.video.DocTypeReadVersion : 2
Xmp.video.TimecodeScale : 0.001
Xmp.video.MuxingApp : libebml v1.3.5 + libmatroska v1.4.5
Xmp.video.WritingApp : mkvmerge v15.0.0 ('Duel with the Devil') 64-bit
Xmp.video.Duration : 5613525
Xmp.video.DateUTC : 529317922
Xmp.video.Title : Только правда / The Whole Truth
Xmp.video.TotalStream : 37
Xmp.video.TrackLacing : No
Xmp.video.Codec : V_MPEGH/ISO/HEVC
Xmp.video.FrameRate : 23.976
Xmp.video.TrackLang : und
Xmp.video.Width : 1920
Xmp.video.Height : 800
Xmp.audio.Compressor : A_DTS
Xmp.audio.DefaultDuration : 10666
Xmp.audio.TrackLang : rus
Xmp.video.TrackName : Перевод: Любительский многоголосый (закадровый) | Студия пиратского дубляжа
Xmp.audio.SampleRate : 48000
Xmp.audio.DefaultOn : No
Xmp.audio.BitsPerSample : 24
Xmp.video.SubTDefaultOn : No
Xmp.video.SubTTrackLacing : No
Xmp.video.SubTCodec : S_TEXT/UTF8
Xmp.video.AttachFileName : cover.jpg
Xmp.video.AttachFileMIME : image/jpeg
Xmp.video.AttachFileUID : -1889248350651384401
Xmp.video.AspectRatio : 2.4

Внимание! HEVC/x265:

H.265/HEVC (High Efficiency Video Coding) - это новый стандарт кодирования видео.
*Рипы в фомате HEVC, в настоящее время не поддерживается большинством аппаратных проигрывателей.
*Для корректного воспроизведения может потребоваться обновление ПО.
*Стандарт H.265/HEVC является логическим продолжением стандарта H.264/AVC (Advanced Video Coding), и характеризуется более эффективными алгоритмами сжатия, а также поддержкой высокого разрешения вплоть до 8K UHD (8192x4320). Первая версия стандарта H.265 была опубликована в начале 2013 года.
Любителям решения из коробки - установить последнюю версию на выбор:
Media Player Classic - Black Edition (MPC-BE)
VLC media player
Daum Pot Player
GOM Media Player
Любителям WMP и других плееров, использующих по умолчанию для воспроизведения системные кодеки+сплитеры - установить K-Lite Codec Pack версии 10.1.0 и выше.
Любимые плееры, не использующии по умолчанию для воспроизведения системные кодеки+сплитеры, нужно перенастроить на использование оных.

Скриншоты

Скриншоты:

Дополнительная информация

От: Goor80

[Цитировать]

Топик был перенесен из форума Зарубежное кино (HD Video) в форум Новинки кинопроката 2016 (HD Video)
Viktor1952



Показать сообщения:    

Текущее время: 25-Фев 10:46

Часовой пояс: UTC + 6


Вы не можете начинать темы
Вы не можете отвечать на сообщения
Вы не можете редактировать свои сообщения
Вы не можете удалять свои сообщения
Вы не можете голосовать в опросах
Вы не можете прикреплять файлы к сообщениям
Вы не можете скачивать файлы

!ВНИМАНИЕ!
Сайт не предоставляет электронные версии произведений, а занимается лишь коллекционированием и каталогизацией ссылок, присылаемых и публикуемых на форуме нашими читателями. Если вы являетесь правообладателем какого-либо представленного материала и не желаете, чтобы ссылка на него находилась в нашем каталоге, свяжитесь с нами, и мы незамедлительно удалим ее. Файлы для обмена на трекере предоставлены пользователями сайта, и администрация не несет ответственности за их содержание. Просьба не заливать файлы, защищенные авторскими правами, а также файлы нелегального содержания!