***Уважаемые пользователи и гости !!! Сайт переехал на новый домен Torrents-club.info. Просьба изменить ваши закладки! ***
 
[ Сегодня идет свободное скачивание без начисления Download ]


Статистика раздачи
Нет
 
   
 
 
 
Пес-самурай и город кошек / Paws of Fury: The Legend of Hank Год выпуска: 2022
Выпущено: Великобритания, Китай, Канада, США, Align, Blazing Productions, Comic Animations, Flying Tigers Entertainment, GFM Animation, Huayi Brothers Media
Жанр: Мультфильм, боевик, комедия, семейный
Продолжительность: 01:33:35
Перевод: Профессиональный (многоголосый, закадровый) | Jaskier, TVShows
Режиссер: Крис Бэйли, Марк Куцир, Роб Минкофф
В ролях:
Майкл Сера, Сэмюэл Л. Джексон, Рики Джервэйс, Кайли Куиока, Мэл Брукс, Джордж Такей, Габриэль Иглесиас, Аасиф Мандви, Джимон Хонсу, Мишель Йео
О фильме:
Хэнк — смелый пёс, мечтающий стать самураем, вот только в городе кошек его никто не воспринимает всерьёз. Но когда армия пушистых ниндзя угрожает стереть их городок с лица Земли, Хэнк становится единственной надеждой на спасение. Теперь с помощью мудрого учителя и верных друзей он должен в сжатые сроки овладеть навыками великого воина. Только так у него появится шанс победить в эпической битве с могущественным врагом, вооруженным от усов до хвоста.

Качество: WEB-DL 1080p
Контейнер: MKV
Видео: AVC, 1920x1080 (16:9), 25 fps, ~7830 kbps
Аудио 1: AC-3, 6 ch, 448 Kbps - Русский (MVO | Jaskier)
Аудио 2: AC-3, 2 ch, 192 Kbps - Русский (MVO | TVShows)
Аудио 3: Е-AC-3, 6 ch, 192 Kbps - Английский
Субтитры: Английские

MediaInfo

Общее
Уникальный идентификатор : 270291952081624659011751882077786508481 (0xCB58561FE397E3A212AE7BB23E9E8CC1)
Полное имя : D:PAWS_OF_FURY_2022_WEB-DL_1080p-BLUEBIRD.mkv
Формат : Matroska
Версия формата : Version 4
Размер файла : 5,66 Гбайт
Продолжительность : 1 ч. 33 м.
Общий поток : 8 653 Кбит/сек
Название фильма : PAWS_OF_FURY_2022_WEB-DL_1080p-BLUEBIRD
Дата кодирования : UTC 2022-08-04 19:40:13
Программа кодирования : mkvmerge v51.0.0 ('I Wish') 64-bit
Библиотека кодирования : libebml v1.4.0 + libmatroska v1.6.2
Обложка : Yes
Attachments : cover.png
Видео
Идентификатор : 1
Формат : AVC
Формат/Информация : Advanced Video Codec
Профиль формата : High@L4.1
Настройки формата : CABAC / 2 Ref Frames
Параметр CABAC формата : Да
Параметр RefFrames формата : 2 кадра
Идентификатор кодека : V_MPEG4/ISO/AVC
Продолжительность : 1 ч. 33 м.
Вид битрейта : Постоянный
Битрейт : 7 830 Кбит/сек
Ширина : 1 920 пикселей
Высота : 1 080 пикселей
Соотношение сторон : 16:9
Режим частоты кадров : Постоянный
Частота кадров : 25,000 кадров/сек
Цветовое пространство : YUV
Субдискретизация насыщенности : 4:2:0
Битовая глубина : 8 бит
Тип развёртки : Прогрессивная
Бит/(Пиксели*Кадры) : 0.151
Размер потока : 5,11 Гбайт (90%)
Заголовок : PAWS_OF_FURY_2022_WEB-DL_1080p-BLUEBIRD
Язык : English
Default : Да
Forced : Нет
Аудио #1
Идентификатор : 2
Формат : AC-3
Формат/Информация : Audio Coding 3
Коммерческое название : Dolby Digital
Идентификатор кодека : A_AC3
Продолжительность : 1 ч. 33 м.
Вид битрейта : Постоянный
Битрейт : 448 Кбит/сек
Каналы : 6 каналов
Channel layout : L R C LFE Ls Rs
Частота : 48,0 КГц
Частота кадров : 31,250 кадров/сек (1536 SPF)
Метод сжатия : С потерями
Размер потока : 300 Мбайт (5%)
Заголовок : [MVO] DD 5.1 @ 448 kbps (Jaskier)
Язык : Russian
Service kind : Complete Main
Default : Да
Forced : Нет
Аудио #2
Идентификатор : 3
Формат : AC-3
Формат/Информация : Audio Coding 3
Коммерческое название : Dolby Digital
Идентификатор кодека : A_AC3
Продолжительность : 1 ч. 33 м.
Вид битрейта : Постоянный
Битрейт : 192 Кбит/сек
Каналы : 2 канала
Channel layout : L R
Частота : 48,0 КГц
Частота кадров : 31,250 кадров/сек (1536 SPF)
Метод сжатия : С потерями
Размер потока : 129 Мбайт (2%)
Заголовок : [MVO] DD 2.0 @ 192 kbps (TVshows)
Язык : Russian
Service kind : Complete Main
Default : Нет
Forced : Нет
Аудио #3
Идентификатор : 4
Формат : E-AC-3
Формат/Информация : Enhanced AC-3
Коммерческое название : Dolby Digital Plus
Идентификатор кодека : A_EAC3
Продолжительность : 1 ч. 33 м.
Вид битрейта : Постоянный
Битрейт : 192 Кбит/сек
Каналы : 6 каналов
Channel layout : L R C LFE Ls Rs
Частота : 48,0 КГц
Частота кадров : 31,250 кадров/сек (1536 SPF)
Метод сжатия : С потерями
Размер потока : 129 Мбайт (2%)
Заголовок : [ORIGINAL] DD+ 5.1 @ 192 kbps
Язык : English
Service kind : Complete Main
Default : Нет
Forced : Нет
Текст
Идентификатор : 5
Формат : UTF-8
Идентификатор кодека : S_TEXT/UTF8
Идентификатор кодека/Информация : UTF-8 Plain Text
Продолжительность : 1 ч. 33 м.
Битрейт : 69 бит/сек
Count of elements : 1635
Размер потока : 47,2 Кбайт (0%)
Заголовок : Full-length
Язык : English
Default : Нет
Forced : Нет

Скриншоты

[Цитировать]



Показать сообщения:    

Текущее время: 13-Авг 19:06

Часовой пояс: UTC + 6


Вы не можете начинать темы
Вы не можете отвечать на сообщения
Вы не можете редактировать свои сообщения
Вы не можете удалять свои сообщения
Вы не можете голосовать в опросах
Вы не можете прикреплять файлы к сообщениям
Вы не можете скачивать файлы

!ВНИМАНИЕ!
Сайт не предоставляет электронные версии произведений, а занимается лишь коллекционированием и каталогизацией ссылок, присылаемых и публикуемых на форуме нашими читателями. Если вы являетесь правообладателем какого-либо представленного материала и не желаете, чтобы ссылка на него находилась в нашем каталоге, свяжитесь с нами, и мы незамедлительно удалим ее. Файлы для обмена на трекере предоставлены пользователями сайта, и администрация не несет ответственности за их содержание. Просьба не заливать файлы, защищенные авторскими правами, а также файлы нелегального содержания!