***Уважаемые пользователи и гости !!! Сайт переехал на новый домен Torrents-club.info. Просьба изменить ваши закладки! ***
 
[ Сегодня идет свободное скачивание без начисления Download ]


Статистика раздачи
Нет
 
   
 
 
 
 
Прыг и Скок. Ребятам о зверятах / Trip ang Troop. Discovering Animals Информация о фильме
Название: Прыг и Скок. Ребятам о зверятах
Оригинальное название: Trip ang Troop. Discovering Animals
Год выхода: 2012
Страна: Испания, 3Detres Animation
Жанр: Мультсериал, детский, познавательный, развивающий, музыкальный
Продолжительность: 51 х ~ 00:03:42
Перевод: Профессиональный дублированный
Режиссер: Виктор Феррандез Гарси
Роли озвучивали: Адв Марила, Александро Естебен
О фильме: Забавные зверята Прыг и Скок побывают во всех уголках нашей планеты, чтобы найти самых интересных и красивых её обитателей. Вглядываясь в свой бинокль, они высматривают очередное животное и пытаются определить кто же это, делая зрителям небольшие подсказки. Напевая весёлую песенку, Прыг и Скок всё больше приближаются к правильному ответу, открывая ребятам новые факты и рассказывая интересные подробности. Юным зрителям остаётся лишь включить воображение и внимательно слушать нехитрые подсказки, которые обязательно приведут их к правильному ответу.

Содержание

01. Лягушка
02. Верблюд
03. Утка
04. Дельфин
05. Пингвин
06. Кролик
07. Бабочка
08. Обезьяна
09. Мышь
10. Овечка
11. Белка
12. Голубь
13. Краб
14. Слон
15. Северный Олень
16. Кенгуру
17. Зебра
18. Змея
19. Корова
20. Лев
21. Осьминог
22. Морской Котик
23. Тигр
24. Попугай
25. Бегемот
26. Носорог
27. Акула
28. Белый Медведь
29. Коза
30. Аист
31. Крокодил
32. Страус
33. Коала
34. Собака
35. Рыба-Клоун
36. Божья Коровка
37. Муравей
38. Орёл
39. Черепаха
40. Хамелеон
41. Свинья
42. Кит
43. Лошадь
44. Пчела
45. Лебедь
46. Курица
47. Морской Конёк
48. Лиса
49. Улитка
50. Сова
51. Кошка
-Доп. информация:

Семпл-Файл
Формат: AVI
Качество: WEB-DLRip
Видео: 720x400 (1.80:1), 25 fps, XviD build 73 ~1598 kbps avg, 0.22 bit/pixel
Звук: 48 kHz, AC3 Dolby Digital, 2/0 (L,R) ch, ~192.00 kbps avg

MI

07. Бабочка. XviD-merci-.avi
Format : AVI
Format/Info : Audio Video Interleave
File size : 47.5 MiB
Duration : 3 min 41 s
Overall bit rate : 1 801 kb/s
Writing application : VirtualDubMod 1.5.10.3 | www.virtualdub-fr.org || (build 2550/release)
Writing library : VirtualDubMod build 2550/release
Video
ID : 0
Format : MPEG-4 Visual
Format profile : Advanced Simple@L5
Format settings, BVOP : 2
Format settings, QPel : No
Format settings, GMC : No warppoints
Format settings, Matrix : Default (MPEG)
Codec ID : XVID
Codec ID/Hint : XviD
Duration : 3 min 41 s
Bit rate : 1 598 kb/s
Width : 720 pixels
Height : 400 pixels
Display aspect ratio : 16:9
Frame rate : 25.000 FPS
Color space : YUV
Chroma subsampling : 4:2:0
Bit depth : 8 bits
Scan type : Progressive
Compression mode : Lossy
Bits/(Pixel*Frame) : 0.222
Stream size : 42.2 MiB (89%)
Writing library : XviD 73
Audio
ID : 1
Format : AC-3
Format/Info : Audio Coding 3
Mode extension : CM (complete main)
Format settings, Endianness : Big
Codec ID : 2000
Duration : 3 min 41 s
Bit rate mode : Constant
Bit rate : 192 kb/s
Channel(s) : 2 channels
Channel positions : Front: L R
Sampling rate : 48.0 kHz
Frame rate : 31.250 FPS (1536 spf)
Bit depth : 16 bits
Compression mode : Lossy
Stream size : 5.06 MiB (11%)
Alignment : Split accross interleaves
Interleave, duration : 40 ms (1.00 video frame)
Interleave, preload duratio : 500 ms

Скриншоты

[Цитировать]



Показать сообщения:    

Текущее время: 12-Май 02:35

Часовой пояс: UTC + 6


Вы не можете начинать темы
Вы не можете отвечать на сообщения
Вы не можете редактировать свои сообщения
Вы не можете удалять свои сообщения
Вы не можете голосовать в опросах
Вы не можете прикреплять файлы к сообщениям
Вы не можете скачивать файлы

!ВНИМАНИЕ!
Сайт не предоставляет электронные версии произведений, а занимается лишь коллекционированием и каталогизацией ссылок, присылаемых и публикуемых на форуме нашими читателями. Если вы являетесь правообладателем какого-либо представленного материала и не желаете, чтобы ссылка на него находилась в нашем каталоге, свяжитесь с нами, и мы незамедлительно удалим ее. Файлы для обмена на трекере предоставлены пользователями сайта, и администрация не несет ответственности за их содержание. Просьба не заливать файлы, защищенные авторскими правами, а также файлы нелегального содержания!